百度云资源论坛

 找回密码
 立即注册
搜索

[剧情片] 象人 The.Elephant.Man.1980.1080p.BluRay.x264.DTS-FGT 10.4GB

[复制链接]
电影首发 发表于 2015-11-2 08:32:00 | 显示全部楼层 |阅读模式

译  名 象人
片  名 The Elephant Man
年  代 1980
国  家 美国
类  别 传记/剧情/历史
语  言 英语
上映日期 1980-10-10
片  长 124 分钟
导  演 大卫·林奇 David Lynch
主  演 安东尼·霍普金斯 Anthony Hopkins
      约翰·赫特 John Hurt
      安妮·班克劳夫特 Anne Bancroft
      约翰·吉尔古德 John Gielgud
      温蒂·希勒 Wendy Hiller


简  介


  象人(约翰•赫特 John Hurt 饰)是一个天生的畸形症患者,他的脸长得就像大象的脸,因此而得名。象人一直被利欲昏心的马戏团老板利用,带到世界各地去巡回演出,受尽了非人的虐待。象人所经受的遭遇社会名流们都会感到不可思议,然而乐观坚强的象人却承担了下来。
  直到有一次,象人遇上了年轻的英国医生(安东尼•霍普金斯 Anthony Hopkins 饰),出于怜悯和医生的操守,他与马戏团老板签订了“领养”协议后,将象人带回了医院作研究。在医院里,象人重新感受到了人间的温暖,而医生也在和象人的交往中结下了深深的友谊,他已经舍不得这位“上帝的弃儿”。但利欲昏心的马戏团老板带人又将象人抢了回去,象人的新生活是否就此终结?


获奖情况


  第53届奥斯卡金像奖 (1981)
  最佳影片(提名) Jonathan Sanger
  最佳导演(提名) 大卫·林奇
  最佳男主角(提名) 约翰·赫特
  最佳改编剧本(提名) 大卫·林奇 / Christopher De Vore / Eric Bergren
  最佳剪辑(提名) 安妮·考特斯
  最佳美术指导(提名) Robert Cartwright / Hugh Scaife / 斯图尔特·克莱格
  最佳服装设计(提名) 帕特丽夏·诺里斯
  最佳原创配乐(提名) John Morris




Video
ID                                       : 1
Format                                   : AVC
Format/Info                              : Advanced Video Codec
Format profile                           : [email protected]
Format settings, CABAC                   : Yes
Format settings, ReFrames                : 5 frames
Codec ID                                 : V_MPEG4/ISO/AVC
Duration                                 : 2h 3mn
Bit rate                                 : 10.5 Mbps
Width                                    : 1 920 pixels
Height                                   : 800 pixels
Display aspect ratio                     : 2.40:1
Frame rate mode                          : Constant
Frame rate                               : 24.000 fps
Color space                              : YUV
Chroma subsampling                       : 4:2:0
Bit depth                                : 8 bits
Scan type                                : Progressive
Bits/(Pixel*Frame)                       : 0.286
Stream size                              : 8.90 GiB (85%)
Writing library                          : x264 core 76 r1271 496d79d
Encoding settings                        : cabac=1 / ref=5 / deblock=1:0:0 / analyse=0x3:0x133 / me=umh / subme=9 / psy=1 / psy_rd=1.0:0.0 / mixed_ref=1 / me_range=24 / chroma_me=1 / trellis=1 / 8x8dct=1 / cqm=0 / deadzone=21,11 / chroma_qp_offset=-2 / threads=12 / nr=0 / decimate=1 / mbaff=0 / bframes=4 / b_pyramid=0 / b_adapt=1 / b_bias=0 / direct=3 / wpredb=1 / keyint=250 / keyint_min=25 / scenecut=40 / rc_lookahead=40 / rc=2pass / mbtree=1 / bitrate=10543 / ratetol=1.0 / qcomp=0.50 / qpmin=10 / qpmax=51 / qpstep=4 / cplxblur=20.0 / qblur=0.5 / ip_ratio=1.10 / aq=1:1.00
Language                                 : English
Default                                  : Yes
Forced                                   : No

Audio
ID                                       : 2
Format                                   : DTS
Format/Info                              : Digital Theater Systems
Mode                                     : 16
Format settings, Endianness              : Big
Codec ID                                 : A_DTS
Duration                                 : 2h 3mn
Bit rate mode                            : Constant
Bit rate                                 : 1 509 Kbps
Channel(s)                               : 6 channels
Channel positions                        : Front: L C R, Side: L R, LFE
Sampling rate                            : 48.0 KHz
Bit depth                                : 16 bits
Compression mode                         : Lossy
Stream size                              : 1.30 GiB (13%)
Language                                 : English
Default                                  : Yes
Forced                                   : No





                                                                                                                                                                                                       

                                                                                                                       
                                                                                                                                                                                                                                                        The.Elephant.Man.1980.1080p.BluRay.x264.DTS-FGT.torrent (52.67 KB, 下载次数: 0)

回复

使用道具 举报

小黑屋|百度云资源论坛

本网站所有资源来自网络,如无意中侵犯了您的权益,请发邮件至 [email protected],立即清除相关链接

GMT+8, 2024-6-23 18:13 , Processed in 0.211222 second(s), 26 queries .

Powered by Discuz! X3.2

© 2001-2013 Comsenz Inc.

快速回复 返回顶部 返回列表