百度云资源论坛

 找回密码
 立即注册
搜索

复仇之灵 Some.Kind.of.Hate.2015.1080p.BluRay.x264.DTS-RARBG 7.74GB

[复制链接]
电影首发 发表于 2015-11-1 09:32:00 | 显示全部楼层 |阅读模式

译  名 复仇之灵
片  名 Some Kind of Hate
年  代 2015
国  家 美国
类  别 恐怖
语  言 英语
片  长 82min
导  演 Adam Egypt Mortimer


简  介


  A bullied teenager is sent to a reform school where he accidentally summons the spirit of a girl, herself a victim of bullying, who takes
vengeance on his tormentors.



  • Video
  • ID                                       : 1
  • Format                                   : AVC
  • Format/Info                              : Advanced Video Codec
  • Format profile                           : [email protected]
  • Format settings, CABAC                   : Yes
  • Format settings, ReFrames                : 5 frames
  • Codec ID                                 : V_MPEG4/ISO/AVC
  • Duration                                 : 1h 22mn
  • Bit rate                                 : 11.6 Mbps
  • Width                                    : 1 920 pixels
  • Height                                   : 804 pixels
  • Display aspect ratio                     : 2.40:1
  • Frame rate mode                          : Constant
  • Frame rate                               : 23.976 fps
  • Color space                              : YUV
  • Chroma subsampling                       : 4:2:0
  • Bit depth                                : 8 bits
  • Scan type                                : Progressive
  • Bits/(Pixel*Frame)                       : 0.313
  • Stream size                              : 6.71 GiB (87%)
  • Title                                    : Some.Kind.of.Hate.2015.1080p.BluRay.x264.DTS-RARBG
  • Writing library                          : x264 core 142 r2431+42 c69a006 tMod [8-bit@all X86_64]
  • Encoding settings                        : cabac=1 / ref=5 / deblock=1:-3:-3 / analyse=0x3:0x133 / me=umh / subme=11 / psy=1 / fade_compensate=0.00 / psy_rd=0.90:0.00 / mixed_ref=1 / me_range=32 / chroma_me=1 / trellis=2 / 8x8dct=1 / cqm=0 / deadzone=21,11 / fast_pskip=0 / chroma_qp_offset=-2 / threads=12 / lookahead_threads=2 / sliced_threads=0 / nr=0 / decimate=0 / interlaced=0 / bluray_compat=0 / constrained_intra=0 / fgo=0 / bframes=8 / b_pyramid=2 / b_adapt=2 / b_bias=0 / direct=3 / weightb=1 / open_gop=0 / weightp=2 / keyint=240 / keyint_min=23 / scenecut=40 / intra_refresh=0 / rc_lookahead=60 / rc=crf / mbtree=0 / crf=18.0000 / qcomp=0.60 / qpmin=0:0:0 / qpmax=69:69:69 / qpstep=4 / vbv_maxrate=40000 / vbv_bufsize=30000 / crf_max=0.0 / nal_hrd=none / filler=0 / ip_ratio=1.40 / pb_ratio=1.30 / aq=1:0.90 / aq-sensitivity=10.00 / aq-factor=1.00:1.00:1.00 / aq2=0 / aq3=0
  • Language                                 : English
  • Default                                  : Yes
  • Forced                                   : No


  • Audio
  • ID                                       : 2
  • Format                                   : DTS
  • Format/Info                              : Digital Theater Systems
  • Mode                                     : 16
  • Format settings, Endianness              : Big
  • Codec ID                                 : A_DTS
  • Duration                                 : 1h 22mn
  • Bit rate mode                            : Constant
  • Bit rate                                 : 1 509 Kbps
  • Channel(s)                               : 6 channels
  • Channel positions                        : Front: L C R, Side: L R, LFE
  • Sampling rate                            : 48.0 KHz
  • Bit depth                                : 24 bits
  • Compression mode                         : Lossy
  • Stream size                              : 895 MiB (11%)
  • Title                                    : Some.Kind.of.Hate.2015.1080p.BluRay.x264.DTS-RARBG
  • Language                                 : English
  • Default                                  : Yes
  • Forced                                   : No


  • Text
  • ID                                       : 3
  • Format                                   : UTF-8
  • Codec ID                                 : S_TEXT/UTF8
  • Codec ID/Info                            : UTF-8 Plain Text
  • Language                                 : English
  • Default                                  : Yes
  • Forced                                   : No


  • Menu
  • 00:00:00.000                             : en:Chapter 01
  • 00:05:56.522                             : en:Chapter 02
  • 00:20:49.164                             : en:Chapter 03
  • 00:31:53.202                             : en:Chapter 04
  • 00:42:52.945                             : en:Chapter 05
  • 00:55:47.385                             : en:Chapter 06
  • 01:19:02.154                             : en:Chapter 07
  • 01:20:39.834                             : en:Chapter 08
  • 01:22:56.096                             : en:Chapter 09




                                                                                                                                                                                                       

                                                                                                                       
                                                                                                                                                                                                                                                        Some.Kind.of.Hate.2015.1080p.BluRay.x264.DTS-RARBG.torrent (78.15 KB, 下载次数: 0)

回复

使用道具 举报

小黑屋|百度云资源论坛

本网站所有资源来自网络,如无意中侵犯了您的权益,请发邮件至 [email protected],立即清除相关链接

GMT+8, 2024-6-23 16:44 , Processed in 0.080483 second(s), 26 queries .

Powered by Discuz! X3.2

© 2001-2013 Comsenz Inc.

快速回复 返回顶部 返回列表