百度云资源论坛

 找回密码
 立即注册
搜索

[动作片] 蝙蝠侠与罗宾 Batman.And.Robin.1997.1080p.BluRay.x264.DTS-FGT 13.41GB

[复制链接]
电影首发 发表于 2015-11-1 09:32:00 | 显示全部楼层 |阅读模式

译  名 蝙蝠侠与罗宾
片  名 Batman and Robin
年  代 1949
国  家 美国
类  别 动作/冒险/犯罪/剧情/科幻
语  言 英语
片  长 263 分钟(15 episodes)
导  演 Spencer Gordon Bennet
主  演 Robert Lowery
      Johnny Duncan
      Jane Adams
      Lyle Talbot
      Ralph Graves
      Don C. Harvey


简  介


  The caped crusaders versus The Wizard, black-hooded mastermind.




Video
ID                                       : 1
Format                                   : AVC
Format/Info                              : Advanced Video Codec
Format profile                           : [email protected]
Format settings, CABAC                   : Yes
Format settings, ReFrames                : 4 frames
Codec ID                                 : V_MPEG4/ISO/AVC
Duration                                 : 2h 4mn
Bit rate                                 : 13.6 Mbps
Width                                    : 1 920 pixels
Height                                   : 1 080 pixels
Display aspect ratio                     : 16:9
Frame rate mode                          : Constant
Frame rate                               : 23.976 fps
Color space                              : YUV
Chroma subsampling                       : 4:2:0
Bit depth                                : 8 bits
Scan type                                : Progressive
Bits/(Pixel*Frame)                       : 0.273
Stream size                              : 11.8 GiB (88%)
Writing library                          : x264 core 130 r2273kMod b3065e6
Encoding settings                        : cabac=1 / ref=4 / deblock=1:-3:-3 / analyse=0x3:0x113 / me=umh / subme=11 / psy=1 / fade_compensate=0.00 / psy_rd=1.00:0.00 / mixed_ref=1 / me_range=48 / chroma_me=1 / trellis=2 / 8x8dct=1 / cqm=0 / deadzone=21,11 / fast_pskip=1 / chroma_qp_offset=-2 / threads=12 / lookahead_threads=2 / sliced_threads=0 / nr=0 / decimate=1 / interlaced=0 / bluray_compat=0 / constrained_intra=0 / bframes=8 / b_pyramid=2 / b_adapt=2 / b_bias=0 / direct=3 / weightb=1 / open_gop=0 / weightp=2 / keyint=250 / keyint_min=23 / scenecut=40 / intra_refresh=0 / rc_lookahead=40 / rc=crf / mbtree=0 / crf=19.2500 / qcomp=0.70 / qpmin=0 / qpmax=69 / qpstep=4 / vbv_maxrate=50000 / vbv_bufsize=62500 / crf_max=0.0 / nal_hrd=none / ip_ratio=1.30 / pb_ratio=1.20 / aq=1:1.00
Language                                 : English
Default                                  : Yes
Forced                                   : No
Color range                              : Limited
Matrix coefficients                      : BT.709

Audio
ID                                       : 2
Format                                   : DTS
Format/Info                              : Digital Theater Systems
Mode                                     : 16
Format settings, Endianness              : Big
Codec ID                                 : A_DTS
Duration                                 : 2h 4mn
Bit rate mode                            : Constant
Bit rate                                 : 1 509 Kbps
Channel(s)                               : 6 channels
Channel positions                        : Front: L C R, Side: L R, LFE
Sampling rate                            : 48.0 KHz
Bit depth                                : 24 bits
Compression mode                         : Lossy
Stream size                              : 1.32 GiB (10%)
Language                                 : English
Default                                  : Yes
Forced                                   : No

Text
ID                                       : 3
Format                                   : UTF-8
Codec ID                                 : S_TEXT/UTF8
Codec ID/Info                            : UTF-8 Plain Text
Language                                 : English
Default                                  : No
Forced                                   : No

Menu
00:00:00.000                             : en:Hero Preparations
00:03:51.229                             : en:Museum Mayhem
00:09:12.551                             : en:Blast Off!
00:13:25.971                             : en:Frozen Stiff
00:15:11.744                             : en:Bane is Born
00:19:09.480                             : en:Victim of Venom
00:21:01.093                             : en:Nature of Family
00:24:03.607                             : en:She\'s Poison Now
00:26:35.719                             : en:Mr Freez\'s Plans
00:29:13.250                             : en:New Family Arrives
00:31:41.732                             : en:Barb\'s Nightlfe
00:33:59.369                             : en:Hers for Greening
00:38:42.152                             : en:Bait for Cold Fish
00:39:54.556                             : en:To The Highest Bidder
00:45:32.228                             : en:Cool Party Thrasher
00:48:47.925                             : en:Chilling Chase
00:50:53.550                             : en:Matters of Trust
00:54:27.931                             : en:Freeze on Ice
00:56:23.545                             : en:Renovations
00:59:29.731                             : en:Thinking Things Over
01:01:05.161                             : en:Fast Company
01:06:00.956                             : en:Secets Revealed
01:07:47.563                             : en:Escape from Arkham
01:12:16.832                             : en:At Freez\'s Lair
01:16:01.055                             : en:Beauty and the Beast
01:20:16.478                             : en:Adam and Evil
01:22:59.807                             : enartners Part
01:25:40.466                             : en:Seeing the Light
01:28:47.488                             : en:Access Allowed
01:32:02.182                             : en:\"Trust Me Now?\"
01:33:25.265                             : en:Nutball Strikes
01:35:15.876                             : en:The Lady Suits Up
01:36:25.279                             : en:Invading Ivy\'s garden
01:41:21.240                             : en:Ica Malice
01:44:21.421                             : en:Storming the Observatory
01:48:31.505                             : en:Telescopic Frenzy
01:49:53.920                             : en:\"Freeze in Hell!\"
01:51:43.697                             : en:The Big Thaw
01:53:33.640                             : en:Helping Hand
01:56:29.314                             : en:Cellmates
01:57:25.537                             : enartners Three
01:59:40.506                             : en:End Credits






                                                                                                                                                                                                       

                                                                                                                       
                                                                                                                                                                                                                                                        Batman.And.Robin.1997.1080p.BluRay.x264.DTS-FGT.torrent (67.67 KB, 下载次数: 0)

回复

使用道具 举报

小黑屋|百度云资源论坛

本网站所有资源来自网络,如无意中侵犯了您的权益,请发邮件至 [email protected],立即清除相关链接

GMT+8, 2024-6-13 20:02 , Processed in 0.122168 second(s), 26 queries .

Powered by Discuz! X3.2

© 2001-2013 Comsenz Inc.

快速回复 返回顶部 返回列表