百度云资源论坛

 找回密码
 立即注册
搜索

[动作片] 永远的蝙蝠侠/蝙蝠侠3 Batman.Forever.1995.1080p.BluRay.x264.DTS-FGT 13.17GB ... ...

[复制链接]
电影首发 发表于 2015-11-1 09:31:00 | 显示全部楼层 |阅读模式
译  名 永远的蝙蝠侠/蝙蝠侠3/新蝙蝠侠之不败之谜/蝙蝠侠3:永远的蝙蝠侠
片  名 Batman Forever
年  代 1995
国  家 美国/英国
类  别 动作/犯罪/奇幻/惊悚
语  言 英语
上映日期 1995-06-16
片  长 121 分钟
导  演 乔·舒马赫 Joel Schumacher
主  演 方·基默 Val Kilmer
      汤米·李·琼斯 Tommy Lee Jones
      金·凯瑞 Jim Carrey
      妮可·基德曼 Nicole Kidman
      克里斯·奥唐纳 Chris O'Donnell
      德鲁·巴里摩尔 Drew Barrymore


简  介


  高谭市的黑暗势力又开始蠢蠢欲动了,这次是毁了半边脸的“双面人”(汤米•李•琼斯 Tommy Lee Jones 饰)。一次,“双面人”袭击了马戏团,演员迪克(克里斯•奥唐纳 Chris O'Donnell 饰)阻止了“双面人”的阴谋,家人却因此惨遭杀害。
  布鲁斯(瓦尔•基尔默 Val Kilmer 饰)收留了迪克,并说服了满腔仇恨的迪克留了下来。因研究计划被拒绝而仇视韦布斯的公司职员爱德华(金•凯瑞 Jim Carrey 饰)成功研究出脑波吸收装置,化身成为“谜语侠”。
  “双面人”和“谜语侠”联手破坏高谭市,并通过脑电波吸收装置大量吸收市民的脑电波。蝙蝠侠这次的对手强大得可怕,蝙蝠侠最终能否战胜罪恶?


获奖情况


  第68届奥斯卡金像奖 (1996)
  最佳摄影(提名) Stephen Goldblatt
  最佳音响(提名) Petur Hliddal / Frank A. Montaño / Michael Herbick / Donald O. Mitchell
  最佳音效剪辑(提名) John Leveque / Bruce Stambler




Video
ID                                       : 1
Format                                   : AVC
Format/Info                              : Advanced Video Codec
Format profile                           : [email protected]
Format settings, CABAC                   : Yes
Format settings, ReFrames                : 4 frames
Codec ID                                 : V_MPEG4/ISO/AVC
Duration                                 : 2h 1mn
Bit rate                                 : 14.0 Mbps
Width                                    : 1 920 pixels
Height                                   : 1 080 pixels
Display aspect ratio                     : 16:9
Frame rate mode                          : Constant
Frame rate                               : 23.976 fps
Color space                              : YUV
Chroma subsampling                       : 4:2:0
Bit depth                                : 8 bits
Scan type                                : Progressive
Bits/(Pixel*Frame)                       : 0.282
Stream size                              : 11.6 GiB (88%)
Writing library                          : x264 core 130 r2273kMod b3065e6
Encoding settings                        : cabac=1 / ref=4 / deblock=1:-3:-3 / analyse=0x3:0x113 / me=umh / subme=11 / psy=1 / fade_compensate=0.00 / psy_rd=1.00:0.00 / mixed_ref=1 / me_range=48 / chroma_me=1 / trellis=2 / 8x8dct=1 / cqm=0 / deadzone=21,11 / fast_pskip=0 / chroma_qp_offset=-2 / threads=12 / lookahead_threads=1 / sliced_threads=0 / nr=0 / decimate=0 / interlaced=0 / bluray_compat=0 / constrained_intra=0 / bframes=6 / b_pyramid=2 / b_adapt=2 / b_bias=0 / direct=3 / weightb=1 / open_gop=0 / weightp=2 / keyint=250 / keyint_min=23 / scenecut=40 / intra_refresh=0 / rc_lookahead=40 / rc=2pass / mbtree=0 / bitrate=14000 / ratetol=1.0 / qcomp=0.70 / qpmin=0 / qpmax=69 / qpstep=4 / cplxblur=20.0 / qblur=0.5 / vbv_maxrate=50000 / vbv_bufsize=62500 / nal_hrd=none / ip_ratio=1.30 / pb_ratio=1.20 / aq=1:1.00
Language                                 : English
Default                                  : Yes
Forced                                   : No
Color range                              : Limited
Matrix coefficients                      : BT.709

Audio
ID                                       : 2
Format                                   : DTS
Format/Info                              : Digital Theater Systems
Mode                                     : 16
Format settings, Endianness              : Big
Codec ID                                 : A_DTS
Duration                                 : 2h 1mn
Bit rate mode                            : Constant
Bit rate                                 : 1 509 Kbps
Channel(s)                               : 6 channels
Channel positions                        : Front: L C R, Side: L R, LFE
Sampling rate                            : 48.0 KHz
Bit depth                                : 24 bits
Compression mode                         : Lossy
Stream size                              : 1.28 GiB (10%)
Language                                 : English
Default                                  : Yes
Forced                                   : No

Text
ID                                       : 3
Format                                   : UTF-8
Codec ID                                 : S_TEXT/UTF8
Codec ID/Info                            : UTF-8 Plain Text
Language                                 : English
Default                                  : No
Forced                                   : No

Menu
00:00:00.000                             : en:\"I\'ll Get Drive-Through\" (Credits)
00:02:18.138                             : en:Of Two Minds; Insightful But Naive
00:05:30.496                             : en:Steel Trap
00:10:10.775                             : en:Copter Chaos
00:12:41.093                             : en:Too Many Questions
00:16:36.994                             : en:Getting Under His Cape
00:19:56.028                             : en:Terminating Stickley
00:24:51.989                             : en:Riddles to Solve (Bad Days)
00:29:10.081                             : en:Not Exactly What They Seem
00:32:56.641                             : en:Tragedy Under the Big Top
00:41:03.294                             : en:Wayne Manor\'s New Resident
00:44:09.646                             : en:\"It\'s Happening Again\"
00:46:51.809                             : en:Broken Wings Mend in Time
00:48:09.219                             : en:Ambush on Gotham\'s Streets
00:50:49.546                             : en:The Riddler Comes Calling
00:56:48.905                             : en:A New Criminal Couple
00:58:16.993                             : en:Secrets in the Sky and Under Wayne Manor
01:01:51.207                             : en:\"We\'re All Two People\"
01:04:45.214                             : en:A Ride in the Other Car (Smash It Up, Where Are You Now?)
01:08:38.280                             : en:\"I\'m a Part of This\"
01:10:24.887                             : en:The Nygmatech Tango
01:15:14.176                             : enarty Crashers
01:19:55.791                             : en:Needed Guidance
01:21:59.914                             : en:The Lady Decides
01:24:06.875                             : en:Bats on the Brain
01:24:58.593                             : en:The Crimefighter Decides
01:26:17.671                             : en:Unhappy Halloween
01:31:36.323                             : en:Intruders at Wayne Manor
01:35:50.744                             : en:Counting on Batman
01:37:25.171                             : enartners
01:39:55.988                             : en:By Air and Sea
01:41:11.732                             : en:Taking a Dive
01:42:54.167                             : en:Clash on Claw Island
01:44:58.500                             : enouble Jeopardy
01:52:35.747                             : en:Flipped Out
01:53:45.151                             : en:Now a Choice
01:54:42.375                             : en:Batman\'s Identity
01:56:03.790                             : en:A New Dream
01:57:33.212                             : en:End Credits (Hold Me, Thrill Me, Kiss Me, Kill Me; Kiss From





                                                                                                                                                                                                       

                                                                                                                       
                                                                                                                                                                                                                                                        Batman.Forever.1995.1080p.BluRay.x264.DTS-FGT.torrent (66.43 KB, 下载次数: 0)

回复

使用道具 举报

小黑屋|百度云资源论坛

本网站所有资源来自网络,如无意中侵犯了您的权益,请发邮件至 [email protected],立即清除相关链接

GMT+8, 2024-6-18 14:07 , Processed in 0.090471 second(s), 26 queries .

Powered by Discuz! X3.2

© 2001-2013 Comsenz Inc.

快速回复 返回顶部 返回列表