百度云资源论坛

 找回密码
 立即注册
搜索

[动作片] 蝙蝠侠:黑暗骑士/蝙蝠侠前传2 The.Dark.Knight.2008.1080p.BluRay.x264.DTS-FGT 19.45 ...

[复制链接]
电影首发 发表于 2015-11-1 09:31:00 | 显示全部楼层 |阅读模式

译  名 蝙蝠侠:黑暗骑士/蝙蝠侠前传2:黑暗骑士/黑暗骑士(台)/蝙蝠侠-黑夜之神(港)/蝙蝠侠6:暗夜骑士
片  名 The Dark Knight
年  代 2008
国  家 美国/英国
类  别 剧情/动作/科幻/犯罪/惊悚
语  言 英语/汉语普通话
上映日期 2008-07-14(纽约首映)/2008-07-18(美国)
片  长 152分钟
导  演 克里斯托弗·诺兰 Christopher Nolan
主  演 克里斯蒂安·贝尔 Christian Bale
      希斯·莱杰 Heath Ledger
      艾伦·艾克哈特 Aaron Eckhart
      迈克尔·凯恩 Michael Caine
      玛吉·吉伦哈尔 Maggie Gyllenhaal
      加里·奥德曼 Gary Oldman
      摩根·弗里曼 Morgan Freeman
      希里安·墨菲 Cillian Murphy
      黄经汉 Chin Han
      陈冠希 Edison Chen
      内斯特·卡博内尔 Nestor Carbonell
      埃里克·罗伯茨 Eric Roberts
      威廉·菲德内尔 William Fichtner


简  介


  从亲眼目睹父母被人杀死的阴影中走出来的“蝙蝠侠”,经历了成长之后,已经不再是那个桀骜不的孤单英雄了。在警官吉姆·戈登和检查官哈维·登特的通力帮助下,“蝙蝠侠”无后顾之忧地继续满世界的奔波,与日益增长起来的犯罪威胁做着永无休止的争斗,而他所在的高谭市,也是进展最为明显的地方,犯罪率以一种惊人的速度持续下降着,毕竟对方是能够上天入地的“蝙蝠侠”,不借两个胆子谁还敢造次呢?不过像高谭这种科技与污秽并存的城市,平静是不可能维持太久的,果不其然,新一轮的混乱很快就席卷了整个城市,人们再一被被恐慌所笼罩着,而声称愿意为这一切负责的,自然就是所有混乱的源头以及支配者--“小丑”了。
  先不管“小丑”掀起一个又一个犯罪的狂潮的最终目的为何,他的企图都是邪恶的,所作所为更是早就危害到了高谭市民的正常生活……其中自然包括了“蝙蝠侠”身边几个非常重要的人,而他需要做的,就是将这股新的危机全部亲自用手捏得粉碎。然而在面对着这个有史以来最具针对性、最恶毒的对手时,“蝙蝠侠”却不得不从他的地下军械库里搬出每一件能够用得上的高科技武器,还得时刻纠结着为他曾经信仰的一切寻找答案。


获奖情况


  第81届奥斯卡金像奖 (2009)
  最佳男配角 希斯·莱杰
  最佳摄影(提名) 沃利·菲斯特
  最佳剪辑(提名) Lee Smith
  最佳视觉效果(提名) Nick Davis / Chris Corbould / Timothy Webber / Paul J. Franklin
  最佳音效剪辑 理查德·金
  最佳混音(提名) Lora Hirschberg / Ed Novick / Gary Rizzo
  最佳美术指导(提名) Nathan Crowley / Peter Lando
  最佳化妆(提名) John Caglione Jr. / Conor O'Sullivan


  第66届金球奖 (2009)
  电影类 最佳男配角 希斯·莱杰


  第32届日本电影学院奖 (2009)
  最佳外语片


  第23届西班牙戈雅奖 (2009)
  最佳欧洲电影(提名) 克里斯托弗·诺兰


  第18届MTV电影奖 (2009)
  MTV电影奖 年度电影(提名)
  MTV电影奖 最佳男演员(提名) 克里斯蒂安·贝尔
  MTV电影奖 最佳打斗(提名) 克里斯蒂安·贝尔 / 希斯·莱杰
  MTV电影奖 最佳反派 希斯·莱杰


  第33届报知映画赏 (2008)
  海外作品奖 克里斯托弗·诺兰




Video
ID                                       : 1
Format                                   : AVC
Format/Info                              : Advanced Video Codec
Format profile                           : [email protected]
Format settings, CABAC                   : Yes
Format settings, ReFrames                : 4 frames
Codec ID                                 : V_MPEG4/ISO/AVC
Duration                                 : 2h 32mn
Bit rate                                 : 16.4 Mbps
Width                                    : 1 920 pixels
Height                                   : 1 080 pixels
Display aspect ratio                     : 16:9
Frame rate mode                          : Constant
Frame rate                               : 23.976 fps
Color space                              : YUV
Chroma subsampling                       : 4:2:0
Bit depth                                : 8 bits
Scan type                                : Progressive
Bits/(Pixel*Frame)                       : 0.330
Stream size                              : 17.5 GiB (90%)
Writing library                          : x264 core 138 r2359+704+48 3f879a0 tMod [8-bit@4:2:0 X86_64]
Encoding settings                        : cabac=1 / ref=4 / deblock=1:-2:-2 / analyse=0x3:0x113 / me=umh / subme=11 / psy=1 / fade_compensate=0.00 / psy_rd=1.00:0.00 / mixed_ref=1 / me_range=48 / chroma_me=1 / trellis=2 / 8x8dct=1 / cqm=0 / deadzone=21,11 / fast_pskip=1 / chroma_qp_offset=-2 / threads=12 / lookahead_threads=2 / sliced_threads=0 / nr=0 / decimate=1 / interlaced=0 / bluray_compat=0 / constrained_intra=0 / fgo=0 / bframes=8 / b_pyramid=2 / b_adapt=2 / b_bias=0 / direct=3 / weightb=1 / open_gop=0 / weightp=2 / keyint=250 / keyint_min=23 / scenecut=40 / intra_refresh=0 / rc_lookahead=60 / rc=crf / mbtree=0 / crf=18.0000 / qcomp=0.60 / qpmin=0:0:0 / qpmax=69:69:69 / qpstep=4 / vbv_maxrate=62500 / vbv_bufsize=78125 / crf_max=0.0 / nal_hrd=none / ip_ratio=1.40 / pb_ratio=1.30 / aq=4:0.80 / aq-sensitivity=11.00 / aq-factor=1.00:1.00:1.00 / aq2=1:0.60 / aq2-sensitivity=9.00 / aq2-factor=1.00:1.00:1.00 / aq3=1:[0.60:0.60]:[0.60:0.60]:[0.60:0.60]:[0.60:0.60] / aq3-sensitivity=10.00 / aq3-factor=[1.00:1.00]:[1.00:1.00]:[1.00:1.00] / aq3-boundary=192:64:24
Language                                 : English
Default                                  : Yes
Forced                                   : No
Color range                              : Limited
Color primaries                          : BT.709
Transfer characteristics                 : BT.709
Matrix coefficients                      : BT.709

Audio
ID                                       : 2
Format                                   : DTS
Format/Info                              : Digital Theater Systems
Mode                                     : 16
Format settings, Endianness              : Big
Codec ID                                 : A_DTS
Duration                                 : 2h 32mn
Bit rate mode                            : Constant
Bit rate                                 : 1 509 Kbps
Channel(s)                               : 6 channels
Channel positions                        : Front: L C R, Side: L R, LFE
Sampling rate                            : 48.0 KHz
Bit depth                                : 16 bits
Compression mode                         : Lossy
Stream size                              : 1.60 GiB (8%)
Language                                 : English
Default                                  : Yes
Forced                                   : No

Text
ID                                       : 3
Format                                   : UTF-8
Codec ID                                 : S_TEXT/UTF8
Codec ID/Info                            : UTF-8 Plain Text
Language                                 : English
Default                                  : No
Forced                                   : No

Menu
00:00:00.000                             : en:Robbery Gone Stranger
00:06:23.966                             : en:Intimidate Mode
00:10:36.260                             : en:Unknown Limits
00:13:52.581                             : en:Last Game in Town
00:17:54.198                             : enrotector\'s Mantle
00:21:39.339                             : en:Kill the Batman
00:26:10.026                             : en:Hong Kong Holiday
00:29:36.274                             : en:Why so Serious?
00:31:42.483                             : en:Landing Lau
00:37:49.058                             : en:Men of their Word
00:43:34.069                             : en:Hero with a Face
00:46:39.546                             : en:Somebody with Access
00:48:57.768                             : en:Tonight\'s Entertainment
00:53:19.446                             : en:Watch the World Burn
00:57:15.640                             : en:Your Plan is Blackmail?
00:59:26.354                             : enishonour Guard
01:03:59.627                             : en:No Rules
01:08:23.557                             : en:Right Choice
01:10:48.327                             : en:I am the Batman
01:14:24.918                             : en:Trip to Country
01:18:05.639                             : en:Bat-pod Faceoff
01:22:22.437                             : en:We Got Him
01:24:48.583                             : en:Good Cop, Bad Cop
01:30:48.442                             : en:Two-way Race
01:34:04.972                             : en:Burned Down
01:39:57.783                             : en:Harvey Two-Face
01:42:05.494                             : en:Better Class of Criminal
01:44:59.918                             : en:Watch Out
01:47:00.872                             : en:Agent of Chaos
01:51:09.913                             : en:Hospital Boom
01:54:14.639                             : en:Too Much Power
01:57:04.017                             : en:Unlucky
02:00:14.248                             : en:Ferry Scary
02:03:37.576                             : enrewitt Building Siege
02:09:07.614                             : en:Verge of Fireworks
02:12:27.314                             : en:Battle for Gotham\'s Soul
02:15:22.781                             : en:One Pointing the Gun
02:19:58.681                             : enark Knight
02:24:26.658                             : en:End Credits







                                                                                                                                                                                                       

                                                                                                                       
                                                                                                                                                                                                                                                        The.Dark.Knight.2008.1080p.BluRay.x264.DTS-FGT.torrent (97.84 KB, 下载次数: 0)

回复

使用道具 举报

小黑屋|百度云资源论坛

本网站所有资源来自网络,如无意中侵犯了您的权益,请发邮件至 [email protected],立即清除相关链接

GMT+8, 2024-6-23 17:41 , Processed in 0.083720 second(s), 26 queries .

Powered by Discuz! X3.2

© 2001-2013 Comsenz Inc.

快速回复 返回顶部 返回列表