百度云资源论坛

 找回密码
 立即注册
搜索

[喜剧片] 冰球坏小子/冰场打架王/呆子 Goon.2011.1080p.BluRay.x264.DTS-FGT 8.27GB ... ...

[复制链接]
电影首发 发表于 2015-11-1 09:31:00 | 显示全部楼层 |阅读模式

译  名 冰球坏小子/冰场打架王/呆子
片  名 Goon
年  代 2011
国  家 美国/加拿大
类  别 喜剧/运动
语  言 英语
上映日期 2011-09-10(多伦多电影节)
片  长 92分钟
导  演 迈克尔·道斯 Michael Dowse
主  演 西恩·威廉·斯科特 Seann William Scott
      杰伊·巴鲁切尔 Jay Baruchel
      马克-安德烈·格隆丁 Marc-André Grondin
      金·寇兹 Kim Coates
      艾丽森·皮尔 Alison Pill
      列维·施瑞博尔 Liev Schreiber
      里基·马比 Ricky Mabe


简  介


  酒吧保安道格·格拉特(西恩·威廉·斯科特 Seann William Scott 饰)体格强壮,行事略有呆气,在一次观看冰球比赛时将不满观众嘘声的球员痛揍,他的壮举经好友拍摄公布后引起大众注意,阴差阳错加入当地一支冰球队从头学起,充当队中暴徒角色。一场场血战为道格赢来了知名度,在教练的请托和引荐下,道格进入职业小联盟的刺客队,刺客队中有因为受伤而产生心理阴影的昔日王牌球员泽维尔,而道格的任务,即是保证泽维尔等队友在场上的安全。道格在比赛之外结识了热爱冰球的姑娘伊娃(艾丽森·皮尔 Alison Pill 饰),他向姑娘笨拙的表达着自己的爱慕。另一方面,王牌冰场打手罗斯在前方等待着道格的挑战……




Video
ID                                       : 1
Format                                   : AVC
Format/Info                              : Advanced Video Codec
Format profile                           : [email protected]
Format settings, CABAC                   : Yes
Format settings, ReFrames                : 4 frames
Codec ID                                 : V_MPEG4/ISO/AVC
Duration                                 : 1h 32mn
Bit rate                                 : 11.1 Mbps
Width                                    : 1 920 pixels
Height                                   : 1 080 pixels
Display aspect ratio                     : 16:9
Frame rate mode                          : Constant
Frame rate                               : 23.976 fps
Color space                              : YUV
Chroma subsampling                       : 4:2:0
Bit depth                                : 8 bits
Scan type                                : Progressive
Bits/(Pixel*Frame)                       : 0.223
Stream size                              : 7.14 GiB (86%)
Writing library                          : x264 core 120 r2164 da19765
Encoding settings                        : cabac=1 / ref=4 / deblock=1:-1:-1 / analyse=0x3:0x113 / me=umh / subme=8 / psy=1 / psy_rd=1.02:0.10 / mixed_ref=0 / me_range=16 / chroma_me=1 / trellis=2 / 8x8dct=1 / cqm=0 / deadzone=21,11 / fast_pskip=0 / chroma_qp_offset=-1 / threads=6 / sliced_threads=0 / nr=0 / decimate=0 / interlaced=0 / bluray_compat=0 / constrained_intra=0 / bframes=6 / b_pyramid=2 / b_adapt=2 / b_bias=0 / direct=2 / weightb=1 / open_gop=0 / weightp=2 / keyint=240 / keyint_min=22 / scenecut=40 / intra_refresh=0 / rc_lookahead=60 / rc=crf / mbtree=1 / crf=18.0 / qcomp=0.70 / qpmin=0 / qpmax=51 / qpstep=4 / vbv_maxrate=38000 / vbv_bufsize=30000 / crf_max=0.0 / nal_hrd=none / ip_ratio=1.40 / aq=1:1.00
Language                                 : English
Default                                  : Yes
Forced                                   : No
Color range                              : Limited
Matrix coefficients                      : BT.709

Audio
ID                                       : 2
Format                                   : DTS
Format/Info                              : Digital Theater Systems
Mode                                     : 16
Format settings, Endianness              : Big
Codec ID                                 : A_DTS
Duration                                 : 1h 32mn
Bit rate mode                            : Constant
Bit rate                                 : 1 509 Kbps
Channel(s)                               : 6 channels
Channel positions                        : Front: L C R, Side: L R, LFE
Sampling rate                            : 48.0 KHz
Bit depth                                : 24 bits
Compression mode                         : Lossy
Stream size                              : 995 MiB (12%)
Language                                 : English
Default                                  : Yes
Forced                                   : No

Text
ID                                       : 3
Format                                   : UTF-8
Codec ID                                 : S_TEXT/UTF8
Codec ID/Info                            : UTF-8 Plain Text
Language                                 : English
Default                                  : Yes
Forced                                   : No

Menu
00:00:00.000                             : en:00:00:00.000
00:00:50.676                             : en:00:00:50.676
00:03:39.678                             : en:00:03:39.678
00:03:51.773                             : en:00:03:51.773
00:04:18.633                             : en:00:04:18.633
00:05:23.240                             : en:00:05:23.240
00:05:39.464                             : en:00:05:39.464
00:05:51.101                             : en:00:05:51.101
00:06:11.538                             : en:00:06:11.538
00:07:04.215                             : en:00:07:04.215
00:09:03.001                             : en:00:09:03.001
00:09:31.029                             : en:00:09:31.029
00:09:41.206                             : en:00:09:41.206
00:10:00.266                             : en:00:10:00.266
00:11:12.088                             : en:00:11:12.088
00:11:25.101                             : en:00:11:25.101
00:11:32.025                             : en:00:11:32.025
00:11:42.118                             : en:00:11:42.118
00:12:05.099                             : en:00:12:05.099
00:12:32.627                             : en:00:12:32.627
00:13:12.375                             : en:00:13:12.375
00:15:31.931                             : en:00:15:31.931
00:16:37.163                             : en:00:16:37.163
00:17:59.537                             : en:00:17:59.537
00:20:33.983                             : en:00:20:33.983
00:21:09.685                             : en:00:21:09.685
00:21:39.340                             : en:00:21:39.340
00:26:05.731                             : en:00:26:05.731
00:31:19.711                             : en:00:31:19.711
00:39:58.813                             : en:00:39:58.813
00:42:08.484                             : en:00:42:08.484
00:47:47.448                             : en:00:47:47.448
00:54:02.865                             : en:00:54:02.865
00:57:53.929                             : en:00:57:53.929
01:04:31.576                             : en:01:04:31.576
01:06:05.378                             : en:01:06:05.378
01:06:38.620                             : en:01:06:38.620
01:07:50.316                             : en:01:07:50.316
01:08:15.967                             : en:01:08:15.967
01:15:18.514                             : en:01:15:18.514
01:24:54.673                             : en:01:24:54.673






                                                                                                                                                                                                       

                                                                                                                       
                                                                                                                                                                                                                                                        Goon.2011.1080p.BluRay.x264.DTS-FGT.torrent (83.31 KB, 下载次数: 0)

回复

使用道具 举报

小黑屋|百度云资源论坛

本网站所有资源来自网络,如无意中侵犯了您的权益,请发邮件至 [email protected],立即清除相关链接

GMT+8, 2024-6-18 15:50 , Processed in 0.087458 second(s), 26 queries .

Powered by Discuz! X3.2

© 2001-2013 Comsenz Inc.

快速回复 返回顶部 返回列表