百度云资源论坛

 找回密码
 立即注册
搜索

年轻气盛/青春 Youth.2015.720p.BluRay.x264.DTS-RARBG 5.86GB

[复制链接]
电影首发 发表于 2015-10-31 13:39:00 | 显示全部楼层 |阅读模式

译  名 年轻气盛/青春
片  名 Youth
年  代 2015
国  家 意大利/法国/瑞士/英国
类  别 剧情
语  言 英语
上映日期 2015-05-20(意大利)
片  长 119分钟
导  演 保罗·索伦蒂诺 Paolo Sorrentino
主  演 蕾切尔·薇兹 Rachel Weisz
      简·方达 Jane Fonda
      迈克尔·凯恩 Michael Caine
      保罗·达诺 Paul Dano
      哈威·凯特尔 Harvey Keitel
      内芙·加切夫 Neve Gachev
      埃德·斯托帕德 Ed Stoppard
      马达丽娜·珍娜 Madalina Ghenea
      马克·科兹莱克 Mark Kozelek
      亚历克斯·麦奎因 Alex Macqueen
      艾米莉亚·琼斯 Emilia Jones
      Poppy Corby-Tuech
      Tom Lipinski
      克洛伊·皮里 Chloe Pirrie


简  介


  老友米克和弗雷德结伴前往阿尔卑斯的度假旅馆,他们以爱和幽默的视角,探讨子女们满是麻烦的生活。米克是导演,正在积极创作自己看来最重要的一部电影,而早就没有了事业追求的指挥家、作曲家弗雷德却收到女王伊丽莎白二世的邀请为菲利普的生日演奏。


获奖情况


  第68届戛纳电影节 (2015)
  主竞赛单元 金棕榈奖(提名) 保罗·索伦蒂诺



  • Video
  • ID                                       : 1
  • Format                                   : AVC
  • Format/Info                              : Advanced Video Codec
  • Format profile                           : [email protected]
  • Format settings, CABAC                   : Yes
  • Format settings, ReFrames                : 4 frames
  • Codec ID                                 : V_MPEG4/ISO/AVC
  • Duration                                 : 2h 3mn
  • Bit rate                                 : 5 141 Kbps
  • Nominal bit rate                         : 5 500 Kbps
  • Width                                    : 1 280 pixels
  • Height                                   : 536 pixels
  • Display aspect ratio                     : 2.40:1
  • Frame rate mode                          : Constant
  • Frame rate                               : 23.976 fps
  • Color space                              : YUV
  • Chroma subsampling                       : 4:2:0
  • Bit depth                                : 8 bits
  • Scan type                                : Progressive
  • Bits/(Pixel*Frame)                       : 0.313
  • Stream size                              : 4.44 GiB (76%)
  • Title                                    : Youth.2015.720p.BluRay.x264.DTS-RARBG
  • Writing library                          : x264 core 146 r2555 0c21480
  • Encoding settings                        : cabac=1 / ref=4 / deblock=1:-2:-2 / analyse=0x3:0x113 / me=umh / subme=7 / psy=1 / psy_rd=1.00:0.15 / mixed_ref=1 / me_range=16 / chroma_me=1 / trellis=1 / 8x8dct=1 / cqm=0 / deadzone=21,11 / fast_pskip=1 / chroma_qp_offset=-3 / threads=12 / lookahead_threads=3 / sliced_threads=0 / nr=0 / decimate=1 / interlaced=0 / bluray_compat=0 / constrained_intra=0 / bframes=3 / b_pyramid=2 / b_adapt=2 / b_bias=0 / direct=3 / weightb=1 / open_gop=0 / weightp=2 / keyint=250 / keyint_min=25 / scenecut=40 / intra_refresh=0 / rc_lookahead=50 / rc=abr / mbtree=1 / bitrate=5500 / ratetol=1.0 / qcomp=0.60 / qpmin=0 / qpmax=69 / qpstep=4 / vbv_maxrate=31250 / vbv_bufsize=31250 / nal_hrd=none / filler=0 / ip_ratio=1.40 / aq=1:1.00
  • Language                                 : English
  • Default                                  : Yes
  • Forced                                   : No


  • Audio
  • ID                                       : 2
  • Format                                   : DTS
  • Format/Info                              : Digital Theater Systems
  • Mode                                     : 16
  • Format settings, Endianness              : Big
  • Codec ID                                 : A_DTS
  • Duration                                 : 2h 3mn
  • Bit rate mode                            : Constant
  • Bit rate                                 : 1 509 Kbps
  • Channel(s)                               : 6 channels
  • Channel positions                        : Front: L C R, Side: L R, LFE
  • Sampling rate                            : 48.0 KHz
  • Bit depth                                : 24 bits
  • Compression mode                         : Lossy
  • Stream size                              : 1.30 GiB (22%)
  • Title                                    : Youth.2015.720p.BluRay.x264.DTS-RARBG
  • Language                                 : English
  • Default                                  : Yes
  • Forced                                   : No


  • Text
  • ID                                       : 3
  • Format                                   : UTF-8
  • Codec ID                                 : S_TEXT/UTF8
  • Codec ID/Info                            : UTF-8 Plain Text
  • Title                                    : FORCED
  • Language                                 : English
  • Default                                  : Yes
  • Forced                                   : Yes


  • Menu
  • 00:00:00.000                             : en:00:00:00.000
  • 00:07:52.806                             : en:00:07:52.806
  • 00:13:19.549                             : en:00:13:19.549
  • 00:20:04.620                             : en:00:20:04.620
  • 00:26:32.549                             : en:00:26:32.549
  • 00:43:57.635                             : en:00:43:57.635
  • 00:47:56.332                             : en:00:47:56.332
  • 00:53:46.056                             : en:00:53:46.056
  • 00:56:47.487                             : en:00:56:47.487
  • 01:03:54.330                             : en:01:03:54.330
  • 01:15:18.180                             : en:01:15:18.180
  • 01:23:02.769                             : en:01:23:02.769
  • 01:30:32.427                             : en:01:30:32.427
  • 01:35:09.871                             : en:01:35:09.871
  • 01:43:46.053                             : en:01:43:46.053
  • 01:47:43.624                             : en:01:47:43.624





                                                                                                                                                                                                       

                                                                                                                       
                                                                                                                                                                                                                                                        Youth.2015.720p.BluRay.x264.DTS-RARBG.torrent (59.26 KB, 下载次数: 0)

回复

使用道具 举报

小黑屋|百度云资源论坛

本网站所有资源来自网络,如无意中侵犯了您的权益,请发邮件至 [email protected],立即清除相关链接

GMT+8, 2024-6-13 18:48 , Processed in 0.252239 second(s), 26 queries .

Powered by Discuz! X3.2

© 2001-2013 Comsenz Inc.

快速回复 返回顶部 返回列表