百度云资源论坛

 找回密码
 立即注册
搜索

[喜剧片] 12只圣诞狗:大狗小狗救援 2012.1080p.BluRay.x264.DTS-FGT 5.65GB

[复制链接]
电影首发 发表于 2015-10-31 09:23:00 | 显示全部楼层 |阅读模式

译  名 12只圣诞狗:大狗小狗救援
片  名 12 Dogs Of Christmas Great Puppy Rescue
年  代 2012
国  家 美国
类  别 家庭
语  言 英

片  长 102 Mins
导  演 基斯·梅里尔 Kieth Merrill
主  演 肖恩·派特里克·弗兰纳里 Sean Patrick Flanery  ....Finneas James
      D·B·斯威尼 D.B. Sweeney  ....Burchess
      Danielle Chuchran  ....Emma
      Alli Simpson  ....Alli
      Darren Ewing  ....Coach
      Alisha Mullally  ....Miranda
      Gillian Foreman  ....Finneas's glamorous girlfriend
      Carlos A. Cabarcas  ....Asper Pluto
      Angella Joy  ....Dog adopter
      Skyler Holman  ....Mike
      Anthony Dennison Masters  ....Conner (as Anthony Masters)
      Blake Leszczynski  ....Referee
      
      
      
     

简  介 

        狗多弗围有麻烦了…但艾米丽奥康纳(丹妮尔chuchran)回来救他们一song-filled,季节性汇演。卑鄙的莫卧儿finneas杰姆斯(肖恩帕特里克)地块关闭当地小狗孤儿院,除非艾米丽能够拿出钱来拯救它。与一些朋友的帮助下,她对比赛时间放在一起音乐假日事件可能只是保存一天。不要错过新的篇章,感人的故事。

艾玛奥康纳现在十几岁返回多弗围在这次行动包装的冒险充满了孩子和小狗!艾玛在和时间赛跑,克服重重困难,抢救狗从不法巨头——孤儿院。


狗多弗围又有麻烦了…但艾米丽奥康纳(丹妮尔chuchran)回来拯救他们在song-filled,季节性的盛会。卑鄙的finneas大亨杰姆斯(肖恩帕特里克)的情节关闭了当地的小狗的孤儿院,除非艾米丽能够拿出钱来拯救它。与一些朋友的帮助,她对比赛的时间放在一起音乐假日事件可能只是保存一天。不要错过新的一章在感人的故事。


艾玛奥康纳现在十几岁的孩子返回多弗围在这次行动包装的有趣的冒险充满了孩子和小狗!艾玛是在与时间赛跑,不可能去救那只狗孤儿院的从一个无耻的大亨。


Video
ID                                       : 1
Format                                   : AVC
Format/Info                              : Advanced Video Codec
Format profile                           : [email protected]
Format settings, CABAC                   : Yes
Format settings, ReFrames                : 4 frames
Codec ID                                 : V_MPEG4/ISO/AVC
Duration                                 : 1h 41mn
Bit rate                                 : 6 282 Kbps
Width                                    : 1 920 pixels
Height                                   : 1 080 pixels
Display aspect ratio                     : 16:9
Frame rate mode                          : Constant
Frame rate                               : 23.976 fps
Color space                              : YUV
Chroma subsampling                       : 4:2:0
Bit depth                                : 8 bits
Scan type                                : Progressive
Bits/(Pixel*Frame)                       : 0.126
Stream size                              : 4.47 GiB (79%)
Writing library                          : x264 core 128 r2216 198a7ea
Encoding settings                        : cabac=1 / ref=4 / deblock=1:-1:-1 / analyse=0x3:0x113 / me=umh / subme=7 / psy=1 / psy_rd=1.00:0.15 / mixed_ref=1 / me_range=16 / chroma_me=1 / trellis=1 / 8x8dct=1 / cqm=0 / deadzone=21,11 / fast_pskip=0 / chroma_qp_offset=-3 / threads=18 / lookahead_threads=3 / sliced_threads=0 / nr=0 / decimate=1 / interlaced=0 / bluray_compat=0 / constrained_intra=0 / bframes=3 / b_pyramid=2 / b_adapt=1 / b_bias=0 / direct=1 / weightb=1 / open_gop=0 / weightp=2 / keyint=250 / keyint_min=23 / scenecut=40 / intra_refresh=0 / rc_lookahead=40 / rc=crf / mbtree=1 / crf=20.0 / qcomp=0.60 / qpmin=0 / qpmax=69 / qpstep=4 / ip_ratio=1.40 / aq=1:1.00
Language                                 : English
Default                                  : Yes
Forced                                   : No

Audio
ID                                       : 2
Format                                   : DTS
Format/Info                              : Digital Theater Systems
Mode                                     : 16
Format settings, Endianness              : Big
Codec ID                                 : A_DTS
Duration                                 : 1h 41mn
Bit rate mode                            : Constant
Bit rate                                 : 1 509 Kbps
Channel(s)                               : 6 channels
Channel positions                        : Front: L C R, Side: L R, LFE
Sampling rate                            : 48.0 KHz
Bit depth                                : 24 bits
Compression mode                         : Lossy
Stream size                              : 1.07 GiB (19%)
Language                                 : English
Default                                  : Yes
Forced                                   : No





                                                                                                                                                                                                       

                                                                                                                       
                                                                                                                                                                                                                                                        12.Dogs.of.Christmas.Great.Puppy.Rescue.2012.1080p.BluRay.x264.DTS-FGT.torrent (57.19 KB, 下载次数: 0)

回复

使用道具 举报

小黑屋|百度云资源论坛

本网站所有资源来自网络,如无意中侵犯了您的权益,请发邮件至 [email protected],立即清除相关链接

GMT+8, 2024-6-23 16:20 , Processed in 0.105365 second(s), 26 queries .

Powered by Discuz! X3.2

© 2001-2013 Comsenz Inc.

快速回复 返回顶部 返回列表