百度云资源论坛

 找回密码
 立即注册
搜索

受影响的女人 A.Woman.Under.the.Influence.1974.1080p.BluRay.x264.DTS-FGT 14.38GB ...

[复制链接]
电影首发 发表于 2015-10-31 09:23:00 | 显示全部楼层 |阅读模式

译  名 受影响的女人/受感化的妇人/权势下的女人
片  名 A Woman Under the Influence
年  代 1974
国  家 美国
类  别 剧情/爱情
语  言 英语/意大利语
上映日期 1974-11-18
片  长 155分钟
导  演 约翰·卡索维茨 John Cassavetes
主  演 彼得·法尔克 Peter Falk
      吉娜·罗兰兹 Gena Rowlands
      弗雷德·德雷珀 Fred Draper


简  介


  尼克(彼得·福克 Peter Falk 饰)老老实实工作,勤勤恳恳做人,尽管从事的是一份辛苦但收入微薄的体力工作,但一想到自己的家庭和未来,尼克感到十分满足。不幸的是,很显然,对于生活,尼克的妻子玛贝尔(吉娜·罗兰兹 Gena Rowlands 饰)有着和丈夫截然不同的想法,她总是抱怨这个,抱怨那个,终日饮酒,精神不稳定随时处于崩溃的边缘。
  一方面,尼克很爱自己的妻子,希望她能够幸福和快乐,另一方面,整日生活在玛贝尔散发的负能量中,尼克很难不受其影响。终于,一场意外让夫妻两人压抑已久的情绪爆发了出来,激烈的争吵,无法调解的冲突,最终,尼克亦开始产生了疑惑,真正不正常的那一个,究竟是谁?


获奖情况


  第47届奥斯卡金像奖 (1975)
  最佳导演(提名) 约翰·卡索维茨
  最佳女主角(提名) 吉娜·罗兰兹




Video
ID                                       : 1
Format                                   : AVC
Format/Info                              : Advanced Video Codec
Format profile                           : [email protected]
Format settings, CABAC                   : Yes
Format settings, ReFrames                : 4 frames
Codec ID                                 : V_MPEG4/ISO/AVC
Duration                                 : 2h 26mn
Bit rate                                 : 13.0 Mbps
Width                                    : 1 920 pixels
Height                                   : 1 040 pixels
Display aspect ratio                     : 1.85:1
Frame rate mode                          : Constant
Frame rate                               : 24.000 fps
Color space                              : YUV
Chroma subsampling                       : 4:2:0
Bit depth                                : 8 bits
Scan type                                : Progressive
Bits/(Pixel*Frame)                       : 0.272
Stream size                              : 13.3 GiB (93%)
Writing library                          : x264 core 129 r2245 bc13772
Encoding settings                        : cabac=1 / ref=4 / deblock=1:-1:-1 / analyse=0x3:0x133 / me=umh / subme=7 / psy=1 / psy_rd=1.00:0.15 / mixed_ref=1 / me_range=16 / chroma_me=1 / trellis=1 / 8x8dct=1 / cqm=0 / deadzone=21,11 / fast_pskip=0 / chroma_qp_offset=-3 / threads=12 / lookahead_threads=2 / sliced_threads=0 / nr=0 / decimate=1 / interlaced=0 / bluray_compat=0 / constrained_intra=0 / bframes=3 / b_pyramid=2 / b_adapt=1 / b_bias=0 / direct=3 / weightb=1 / open_gop=0 / weightp=2 / keyint=240 / keyint_min=24 / scenecut=40 / intra_refresh=0 / rc_lookahead=40 / rc=crf / mbtree=1 / crf=20.0 / qcomp=0.60 / qpmin=10 / qpmax=69 / qpstep=4 / ip_ratio=1.40 / aq=1:1.00
Language                                 : English
Default                                  : Yes
Forced                                   : No

Audio
ID                                       : 2
Format                                   : DTS
Format/Info                              : Digital Theater Systems
Mode                                     : 16
Format settings, Endianness              : Big
Codec ID                                 : A_DTS
Duration                                 : 2h 26mn
Bit rate mode                            : Constant
Bit rate                                 : 768 Kbps
Channel(s)                               : 1 channel
Channel positions                        : Front: C
Sampling rate                            : 48.0 KHz
Bit depth                                : 24 bits
Compression mode                         : Lossy
Stream size                              : 805 MiB (5%)
Language                                 : English
Default                                  : Yes
Forced                                   : No

Menu
00:00:00.000                             : en:00:00:00.000
00:10:50.833                             : en:00:10:50.833
00:17:12.250                             : en:00:17:12.250
00:26:07.166                             : en:00:26:07.166
00:34:40.208                             : en:00:34:40.208
00:40:29.583                             : en:00:40:29.583
00:44:44.083                             : en:00:44:44.083
00:51:36.500                             : en:00:51:36.500
01:05:43.583                             : en:01:05:43.583
01:10:34.250                             : en:01:10:34.250
01:17:00.125                             : en:01:17:00.125
01:23:49.875                             : en:01:23:49.875
01:28:54.958                             : en:01:28:54.958
01:33:45.791                             : en:01:33:45.791
01:38:28.625                             : en:01:38:28.625
01:49:07.041                             : en:01:49:07.041
01:55:08.250                             : en:01:55:08.250
02:00:34.083                             : en:02:00:34.083
02:12:30.583                             : en:02:12:30.583
02:17:55.125                             : en:02:17:55.125
02:26:27.416                             : en:02:26:27.416





                                                                                                                                                                                                       

                                                                                                                       
                                                                                                                                                                                                                                                        A.Woman.Under.the.Influence.1974.1080p.BluRay.x264.DTS-FGT.torrent (72.56 KB, 下载次数: 0)

回复

使用道具 举报

小黑屋|百度云资源论坛

本网站所有资源来自网络,如无意中侵犯了您的权益,请发邮件至 [email protected],立即清除相关链接

GMT+8, 2024-6-13 20:37 , Processed in 0.107654 second(s), 26 queries .

Powered by Discuz! X3.2

© 2001-2013 Comsenz Inc.

快速回复 返回顶部 返回列表