百度云资源论坛

 找回密码
 立即注册
搜索

[恐怖片] 两栖怪兽/两栖怪兽3D Amphibious.Creature.of.the.Deep.2010.1080p.BluRay.x264.DTS-F ...

[复制链接]
电影首发 发表于 2015-10-31 09:23:00 | 显示全部楼层 |阅读模式

译  名 两栖怪兽/两栖怪兽3D
片  名 Amphibious
年  代 2010
国  家 荷兰/Indonesia
类  别 恐怖
语  言 英语
导  演 Brian Yuzna
主  演 Janna Fassaert
      Francis Magee
      Francis Bosco
      Monica Sayangbati


简  介


  海洋生物学家Skylar Shane高金聘用了一个海外“船长”,杰克。希望他可以帮助自己去北苏门答腊岛找寻史前生命的印迹。一路随行的还有杰克船长的其他的所谓的“朋友”。在路上,遇到了一个男孩,Tamal是一个被他叔叔一直扣押着做奴隶的孤儿,他乞求Skylar Shane可以带着他一起去,她看到Tamal总会让她想到自己失踪的女儿Rebecca,于是她决定带着男孩一起。




Video
ID                                       : 1
Format                                   : AVC
Format/Info                              : Advanced Video Codec
Format profile                           : [email protected]
Format settings, CABAC                   : Yes
Format settings, ReFrames                : 4 frames
Codec ID                                 : V_MPEG4/ISO/AVC
Duration                                 : 1h 26mn
Bit rate                                 : 8 370 Kbps
Width                                    : 1 920 pixels
Height                                   : 1 040 pixels
Display aspect ratio                     : 1.85:1
Frame rate mode                          : Constant
Frame rate                               : 23.976 fps
Color space                              : YUV
Chroma subsampling                       : 4:2:0
Bit depth                                : 8 bits
Scan type                                : Progressive
Bits/(Pixel*Frame)                       : 0.175
Stream size                              : 5.05 GiB (83%)
Writing library                          : x264 core 129 r2245 bc13772
Encoding settings                        : cabac=1 / ref=4 / deblock=1:-1:-1 / analyse=0x3:0x133 / me=umh / subme=7 / psy=1 / psy_rd=1.00:0.15 / mixed_ref=1 / me_range=16 / chroma_me=1 / trellis=1 / 8x8dct=1 / cqm=0 / deadzone=21,11 / fast_pskip=0 / chroma_qp_offset=-3 / threads=6 / lookahead_threads=1 / sliced_threads=0 / nr=0 / decimate=1 / interlaced=0 / bluray_compat=0 / constrained_intra=0 / bframes=3 / b_pyramid=2 / b_adapt=1 / b_bias=0 / direct=3 / weightb=1 / open_gop=0 / weightp=2 / keyint=240 / keyint_min=23 / scenecut=40 / intra_refresh=0 / rc_lookahead=40 / rc=crf / mbtree=1 / crf=20.0 / qcomp=0.60 / qpmin=10 / qpmax=69 / qpstep=4 / ip_ratio=1.40 / aq=1:1.00
Language                                 : English
Default                                  : Yes
Forced                                   : No

Audio
ID                                       : 2
Format                                   : DTS
Format/Info                              : Digital Theater Systems
Mode                                     : 16
Format settings, Endianness              : Big
Codec ID                                 : A_DTS
Duration                                 : 1h 26mn
Bit rate mode                            : Constant
Bit rate                                 : 1 509 Kbps
Channel(s)                               : 6 channels
Channel positions                        : Front: L C R, Side: L R, LFE
Sampling rate                            : 48.0 KHz
Bit depth                                : 16 bits
Compression mode                         : Lossy
Stream size                              : 933 MiB (15%)
Language                                 : English
Default                                  : Yes
Forced                                   : No

Menu
00:00:00.000                             : en:00:00:00.000
00:05:25.992                             : en:00:05:25.992
00:11:58.050                             : en:00:11:58.050
00:20:12.002                             : en:00:20:12.002
00:31:50.033                             : en:00:31:50.033
00:38:54.957                             : en:00:38:54.957
00:45:45.993                             : en:00:45:45.993
00:56:56.955                             : en:00:56:56.955
01:03:21.964                             : en:01:03:21.964
01:09:45.931                             : en:01:09:45.931
01:16:09.898                             : en:01:16:09.898
01:22:19.935                             : en:01:22:19.935





                                                                                                                                                                                                       

                                                                                                                       
                                                                                                                                                                                                                                                        Amphibious.Creature.of.the.Deep.2010.1080p.BluRay.x264.DTS-FGT.torrent (61.55 KB, 下载次数: 0)

回复

使用道具 举报

小黑屋|百度云资源论坛

本网站所有资源来自网络,如无意中侵犯了您的权益,请发邮件至 [email protected],立即清除相关链接

GMT+8, 2024-6-23 17:40 , Processed in 0.089370 second(s), 26 queries .

Powered by Discuz! X3.2

© 2001-2013 Comsenz Inc.

快速回复 返回顶部 返回列表