百度云资源论坛

 找回密码
 立即注册
搜索

必要的杀戮/我不要死 Essential.Killing.2010.1080p.BluRay.x264.DTS-FGT 4.12GB ... ...

[复制链接]
电影首发 发表于 2015-10-31 09:23:00 | 显示全部楼层 |阅读模式

译  名 必要的杀戮/我不要死(台)
片  名 Essential Killing
年  代 2010
国  家 波兰/挪威/爱尔兰/匈牙利
类  别 惊悚/战争
语  言 英语/波兰语/阿拉伯语
上映日期 2010-10-22(波兰)
片  长 83分钟
导  演 杰兹·斯科利莫夫斯基 Jerzy Skolimowski
主  演 文森特·加洛 Vincent Gallo
      艾玛纽尔·塞尼耶 Emmanuelle Seigner
      Phillip Goss
      David L. Price


简  介


  阿富汗人穆罕穆德(文森特·加洛 Vincent Gallo 饰)在荒芜的山地中偶遇三名美军,他在惊慌失措中用手中的武器杀死了他们。穆罕穆德被随后赶到的美军活捉,在美军监狱中遭到审讯和虐待。在押解的路上,美军车辆遭遇车祸,默罕默德于混乱中意外的获得了自由。他在冰天雪地中杀死过路人,抢夺了车辆和衣服,又在美军的追踪中杀死军犬。在杳无人烟的森林中,默罕默德依靠树皮充饥,为生存进行卓绝的困兽之斗,在冰雪的侵袭中,他依稀看到了往日的时光,并神奇的感知未来发生的事情。默罕默德的逃亡之路伴随着几乎随机发生的杀戮,恶劣的生存环境促使他回归原始……


获奖情况


  第67届威尼斯电影节 (2010)
  金狮奖(提名) 杰兹·斯科利莫夫斯基
  评审团特别大奖 杰兹·斯科利莫夫斯基
  沃尔皮杯 最佳男演员(威尼斯影帝) 文森特·加洛
  电影未来奖 最佳电影 杰兹·斯科利莫夫斯基




Video
ID                                       : 1
Format                                   : AVC
Format/Info                              : Advanced Video Codec
Format profile                           : [email protected]
Format settings, CABAC                   : Yes
Format settings, ReFrames                : 4 frames
Codec ID                                 : V_MPEG4/ISO/AVC
Duration                                 : 1h 24mn
Bit rate                                 : 6 046 Kbps
Width                                    : 1 920 pixels
Height                                   : 1 040 pixels
Display aspect ratio                     : 1.85:1
Frame rate mode                          : Constant
Frame rate                               : 23.976 fps
Color space                              : YUV
Chroma subsampling                       : 4:2:0
Bit depth                                : 8 bits
Scan type                                : Progressive
Bits/(Pixel*Frame)                       : 0.126
Stream size                              : 3.58 GiB (87%)
Writing library                          : x264 core 115 r1995 c1e60b9
Encoding settings                        : cabac=1 / ref=4 / deblock=1:0:0 / analyse=0x3:0x133 / me=umh / subme=7 / psy=1 / psy_rd=1.00:0.00 / mixed_ref=1 / me_range=16 / chroma_me=1 / trellis=1 / 8x8dct=1 / cqm=0 / deadzone=21,11 / fast_pskip=0 / chroma_qp_offset=-2 / threads=12 / sliced_threads=0 / nr=0 / decimate=1 / interlaced=0 / bluray_compat=0 / constrained_intra=0 / bframes=3 / b_pyramid=2 / b_adapt=1 / b_bias=0 / direct=3 / weightb=1 / open_gop=0 / weightp=2 / keyint=250 / keyint_min=23 / scenecut=40 / intra_refresh=0 / rc_lookahead=40 / rc=crf / mbtree=1 / crf=20.0 / qcomp=0.60 / qpmin=10 / qpmax=51 / qpstep=4 / ip_ratio=1.40 / aq=1:1.00
Language                                 : English
Default                                  : Yes
Forced                                   : No

Audio
ID                                       : 2
Format                                   : DTS
Format/Info                              : Digital Theater Systems
Mode                                     : 16
Format settings, Endianness              : Big
Codec ID                                 : A_DTS
Duration                                 : 1h 24mn
Bit rate mode                            : Constant
Bit rate                                 : 768 Kbps
Channel(s)                               : 6 channels
Channel positions                        : Front: L C R, Side: L R, LFE
Sampling rate                            : 48.0 KHz
Bit depth                                : 16 bits
Compression mode                         : Lossy
Stream size                              : 466 MiB (11%)
Language                                 : English
Default                                  : Yes
Forced                                   : No






                                                                                                                                                                                                       

                                                                                                                       
                                                                                                                                                                                                                                                        Essential.Killing.2010.1080p.BluRay.x264.DTS-FGT.torrent (82.98 KB, 下载次数: 0)

回复

使用道具 举报

小黑屋|百度云资源论坛

本网站所有资源来自网络,如无意中侵犯了您的权益,请发邮件至 [email protected],立即清除相关链接

GMT+8, 2024-6-23 16:47 , Processed in 0.071178 second(s), 26 queries .

Powered by Discuz! X3.2

© 2001-2013 Comsenz Inc.

快速回复 返回顶部 返回列表