百度云资源论坛

 找回密码
 立即注册
搜索

[剧情片] 截稿日期 Deadline.2009.1080p.BluRay.x264.DD5.1-FGT 7.95GB

[复制链接]
电影首发 发表于 2015-7-5 09:54:00 | 显示全部楼层 |阅读模式

译  名 截稿日期
片  名 Deadline
年  代 2009
国  家 美国
语  言 英语
上映日期 2009-02-07
导  演 Sean McConville
主  演 布莱特妮·墨菲 Brittany Murphy


简  介


  现年32岁的瘦弱女子爱丽丝·伊万斯(布莱特妮·墨菲 Brittany Murphy 饰)是一个小有名气的编剧,由于当年和男友的纷争,造成爱丽丝神经容易紧张,无法专心工作。眼看截稿日期临近,而且听闻男友出狱,于是她跑到偏远乡村,将自己隔绝在一幢无人别墅,希望能够静心完成作品。
  然而事与愿违,空空荡荡的别墅反令爱丽丝的心愈加紧张。诡异的梦、自动打开的门、渗人的哭声以及一串神秘的脚印,仿佛都在昭示一个未知生命体的存在。爱丽丝开始有意识探究这幢房子的秘密,她找到前主人戴维留在这里的一卷录影带,不知不觉,她便融入戴维夫妇的世界中。孰真孰假,亦真亦幻,概莫能辨……


Video
ID                                       : 1
Format                                   : AVC
Format/Info                              : Advanced Video Codec
Format profile                           : High@L4.1
Format settings, CABAC                   : Yes
Format settings, ReFrames                : 5 frames
Codec ID                                 : V_MPEG4/ISO/AVC
Duration                                 : 1h 25mn
Bit rate                                 : 12.9 Mbps
Width                                    : 1 920 pixels
Height                                   : 816 pixels
Display aspect ratio                     : 2.35:1
Frame rate mode                          : Constant
Frame rate                               : 23.976 fps
Color space                              : YUV
Chroma subsampling                       : 4:2:0
Bit depth                                : 8 bits
Scan type                                : Progressive
Bits/(Pixel*Frame)                       : 0.344
Stream size                              : 7.52 GiB (95%)
Writing library                          : x264 core 79 r1347 5ddd61b
Encoding settings                        : cabac=1 / ref=5 / deblock=1:0:0 / analyse=0x3:0x133 / me=umh / subme=7 / psy=1 / psy_rd=1.0:0.0 / mixed_ref=1 / me_range=16 / chroma_me=1 / trellis=1 / 8x8dct=1 / cqm=0 / deadzone=21,11 / chroma_qp_offset=-2 / threads=12 / nr=0 / decimate=1 / mbaff=0 / constrained_intra=0 / bframes=3 / b_pyramid=0 / b_adapt=1 / b_bias=0 / direct=1 / wpredb=1 / wpredp=2 / keyint=250 / keyint_min=25 / scenecut=40 / rc_lookahead=40 / rc=2pass / mbtree=1 / bitrate=12918 / ratetol=1.0 / qcomp=0.60 / qpmin=10 / qpmax=51 / qpstep=4 / cplxblur=20.0 / qblur=0.5 / ip_ratio=1.40 / aq=1:1.00
Language                                 : English
Default                                  : Yes
Forced                                   : No

Audio
ID                                       : 2
Format                                   : AC-3
Format/Info                              : Audio Coding 3
Mode extension                           : CM (complete main)
Format settings, Endianness              : Big
Codec ID                                 : A_AC3
Duration                                 : 1h 25mn
Bit rate mode                            : Constant
Bit rate                                 : 448 Kbps
Channel(s)                               : 6 channels
Channel positions                        : Front: L C R, Side: L R, LFE
Sampling rate                            : 48.0 KHz
Bit depth                                : 16 bits
Compression mode                         : Lossy
Stream size                              : 273 MiB (3%)
Language                                 : English
Default                                  : Yes
Forced                                   : No

Text
ID                                       : 3
Format                                   : UTF-8
Codec ID                                 : S_TEXT/UTF8
Codec ID/Info                            : UTF-8 Plain Text
Language                                 : English
Default                                  : No
Forced                                   : No





                                                                                                                                                                                                       

                                                                                                                       
                                                                                                                                                                                                                                                        Deadline.2009.1080p.BluRay.x264.DD5.1-FGT.torrent (80.05 KB, 下载次数: 0)

回复

使用道具 举报

小黑屋|百度云资源论坛 |网站地图

本网站所有资源来自网络,如无意中侵犯了您的权益,请发邮件至 aa635343@outlook.com,立即清除相关链接

GMT+8, 2019-8-26 02:04 , Processed in 0.532057 second(s), 27 queries .

Powered by Discuz! X3.2

© 2001-2013 Comsenz Inc.

快速回复 返回顶部 返回列表