百度云资源论坛

 找回密码
 立即注册
搜索

[左右格式] 侏罗纪公园[3D左右]Jurassic.Park.1993.1080p.3D.BluRay.Half-SBS.x264.DTS-HR.7.1-RA ...

[复制链接]
电影首发 发表于 2015-7-4 07:57:00 | 显示全部楼层 |阅读模式

译  名 侏罗纪公园
片  名 Jurassic Park
年  代 1993
国  家 美国
类  别 科幻/冒险
语  言 英语/西班牙语
上映日期 1993-06-11(美国)/2013-04-05(美国 3D)/2013-08-20(中国大陆 3D)
片  长 127 分钟
导  演 史蒂文·斯皮尔伯格 Steven Spielberg
主  演 山姆·尼尔 Sam Neill
      劳拉·邓恩 Laura Dern
      杰夫·高布伦 Jeff Goldblum
      理查德·阿滕伯勒 Richard Attenborough
      鲍勃·佩克 Bob Peck
      马丁·费雷罗 Martin Ferrero
      约瑟夫·梅泽罗 Joseph Mazzello
      阿丽亚娜·理查兹 Ariana Richards
      塞缪尔·杰克逊 Samuel L. Jackson
      黄荣亮 B.D. Wong
      韦恩·奈特 Wayne Knight
      杰拉尔德·R·莫伦 Gerald R. Molen
      米盖尔·桑多瓦尔 Miguel Sandoval


简  介


  哈蒙德(理查德•阿滕伯勒 Richard Attenborough  饰)立志要建立一个非同寻常的公园:恐龙将是这个公园的主角。他把众多科学家收归旗下,利用琥珀里面困住的远古蚊子体内的血液,提取出恐龙的基因信息,利用这些信息培育繁殖恐龙。结果如愿以偿,他把怒布拉岛建立成了一个恐龙公园,坚信可以从中赚取大钱。然而,科学家们则忧心忡忡。
  不幸的事情果然发生了。虽然公园有电脑系统管理,但却因为被员工破坏而造成了无法挽救的失控:所有的恐龙逃出了控制区,人们纷纷逃窜却逃不过恐龙的魔爪。恐龙自相残杀,人们亦死难无数,最后幸存者寥寥,只得四人逃出生天。怒布拉岛上空弥漫着恐怖的气息。


获奖情况


  第66届奥斯卡金像奖 (1994)
  最佳视觉效果 斯坦·温斯顿 / 丹尼斯·穆伦 / 菲尔 蒂贝特 / Michael Lantieri
  最佳音响 嘉里·瑞德斯托姆 / Gary Summers / Shawn Murphy / 朗·贾金斯
  最佳音效剪辑 嘉里·瑞德斯托姆 / Richard Hymns


  第17届日本电影学院奖 (1994)
  最佳外语片



  • Video
  • ID                                       : 1
  • Format                                   : AVC
  • Format/Info                              : Advanced Video Codec
  • Format profile                           : [email protected]
  • Format settings, CABAC                   : Yes
  • Format settings, ReFrames                : 2 frames
  • Codec ID                                 : V_MPEG4/ISO/AVC
  • Duration                                 : 2h 6mn
  • Bit rate                                 : 15.5 Mbps
  • Width                                    : 1 920 pixels
  • Height                                   : 1 080 pixels
  • Display aspect ratio                     : 16:9
  • Frame rate mode                          : Constant
  • Frame rate                               : 23.976 fps
  • Color space                              : YUV
  • Chroma subsampling                       : 4:2:0
  • Bit depth                                : 8 bits
  • Scan type                                : Progressive
  • Bits/(Pixel*Frame)                       : 0.312
  • Stream size                              : 13.3 GiB (71%)
  • Title                                    : Jurassic.Park.1993.1080p.3D.BluRay.Half-SBS.x264.DTS-HR.7.1-RARBG
  • Writing library                          : x264 core 142
  • Encoding settings                        : cabac=1 / ref=1 / deblock=1:-1:-1 / analyse=0x3:0 / me=hex / subme=5 / psy=0 / mixed_ref=0 / me_range=16 / chroma_me=1 / trellis=0 / 8x8dct=1 / cqm=0 / deadzone=21,11 / fast_pskip=1 / chroma_qp_offset=0 / threads=8 / lookahead_threads=2 / sliced_threads=0 / nr=0 / decimate=1 / interlaced=0 / bluray_compat=0 / constrained_intra=0 / bframes=2 / b_pyramid=0 / b_adapt=1 / b_bias=0 / direct=1 / weightb=1 / open_gop=0 / weightp=0 / keyint=24 / keyint_min=13 / scenecut=40 / intra_refresh=0 / rc=abr / mbtree=0 / bitrate=15500 / ratetol=1.0 / qcomp=0.60 / qpmin=0 / qpmax=69 / qpstep=4 / ip_ratio=1.40 / pb_ratio=1.30 / aq=1:1.00
  • Language                                 : English
  • Default                                  : Yes
  • Forced                                   : No
  • Color range                              : Limited
  • Color primaries                          : BT.709
  • Transfer characteristics                 : BT.709
  • Matrix coefficients                      : BT.709


  • Audio #1
  • ID                                       : 2
  • Format                                   : DTS
  • Format/Info                              : Digital Theater Systems
  • Format profile                           : HRA / Core
  • Mode                                     : 16
  • Format settings, Endianness              : Big
  • Codec ID                                 : A_DTS
  • Duration                                 : 2h 6mn
  • Bit rate mode                            : Constant
  • Bit rate                                 : 2 046 Kbps / 1 509 Kbps
  • Channel(s)                               : 8 channels / 6 channels
  • Channel positions                        : Front: L C R, Side: L R, Back: L R, LFE / Front: L C R, Side: L R, LFE
  • Sampling rate                            : 48.0 KHz
  • Bit depth                                : 24 bits
  • Compression mode                         : Lossy
  • Stream size                              : 1.81 GiB (10%)
  • Title                                    : Jurassic.Park.1993.1080p.3D.BluRay.Half-SBS.x264.DTS-HR.7.1-RARBG
  • Language                                 : English
  • Default                                  : Yes
  • Forced                                   : No


  • Audio #2
  • ID                                       : 3
  • Format                                   : DTS
  • Format/Info                              : Digital Theater Systems
  • Mode                                     : 16
  • Format settings, Endianness              : Big
  • Codec ID                                 : A_DTS
  • Duration                                 : 2h 6mn
  • Bit rate mode                            : Constant
  • Bit rate                                 : 1 509 Kbps
  • Channel(s)                               : 6 channels
  • Channel positions                        : Front: L C R, Side: L R, LFE
  • Sampling rate                            : 48.0 KHz
  • Bit depth                                : 24 bits
  • Compression mode                         : Lossy
  • Stream size                              : 1.34 GiB (7%)
  • Title                                    : Jurassic.Park.1993.1080p.3D.BluRay.Half-SBS.x264.DTS-HR.7.1-RARBG
  • Language                                 : English
  • Default                                  : No
  • Forced                                   : No


  • Audio #3
  • ID                                       : 4
  • Format                                   : AC-3
  • Format/Info                              : Audio Coding 3
  • Mode extension                           : CM (complete main)
  • Format settings, Endianness              : Big
  • Codec ID                                 : A_AC3
  • Duration                                 : 2h 6mn
  • Bit rate mode                            : Constant
  • Bit rate                                 : 448 Kbps
  • Channel(s)                               : 6 channels
  • Channel positions                        : Front: L C R, Side: L R, LFE
  • Sampling rate                            : 48.0 KHz
  • Bit depth                                : 16 bits
  • Compression mode                         : Lossy
  • Stream size                              : 406 MiB (2%)
  • Title                                    : Jurassic.Park.1993.1080p.3D.BluRay.Half-SBS.x264.DTS-HR.7.1-RARBG
  • Language                                 : Czech
  • Default                                  : No
  • Forced                                   : No


  • Audio #4
  • ID                                       : 5
  • Format                                   : AC-3
  • Format/Info                              : Audio Coding 3
  • Mode extension                           : CM (complete main)
  • Format settings, Endianness              : Big
  • Codec ID                                 : A_AC3
  • Duration                                 : 2h 6mn
  • Bit rate mode                            : Constant
  • Bit rate                                 : 448 Kbps
  • Channel(s)                               : 6 channels
  • Channel positions                        : Front: L C R, Side: L R, LFE
  • Sampling rate                            : 48.0 KHz
  • Bit depth                                : 16 bits
  • Compression mode                         : Lossy
  • Stream size                              : 406 MiB (2%)
  • Title                                    : Jurassic.Park.1993.1080p.3D.BluRay.Half-SBS.x264.DTS-HR.7.1-RARBG
  • Language                                 : Hungarian
  • Default                                  : No
  • Forced                                   : No


  • Audio #5
  • ID                                       : 6
  • Format                                   : AC-3
  • Format/Info                              : Audio Coding 3
  • Mode extension                           : CM (complete main)
  • Format settings, Endianness              : Big
  • Codec ID                                 : A_AC3
  • Duration                                 : 2h 6mn
  • Bit rate mode                            : Constant
  • Bit rate                                 : 448 Kbps
  • Channel(s)                               : 6 channels
  • Channel positions                        : Front: L C R, Side: L R, LFE
  • Sampling rate                            : 48.0 KHz
  • Bit depth                                : 16 bits
  • Compression mode                         : Lossy
  • Stream size                              : 406 MiB (2%)
  • Title                                    : Jurassic.Park.1993.1080p.3D.BluRay.Half-SBS.x264.DTS-HR.7.1-RARBG
  • Language                                 : Polish
  • Default                                  : No
  • Forced                                   : No


  • Audio #6
  • ID                                       : 7
  • Format                                   : AC-3
  • Format/Info                              : Audio Coding 3
  • Mode extension                           : CM (complete main)
  • Format settings, Endianness              : Big
  • Codec ID                                 : A_AC3
  • Duration                                 : 2h 6mn
  • Bit rate mode                            : Constant
  • Bit rate                                 : 448 Kbps
  • Channel(s)                               : 6 channels
  • Channel positions                        : Front: L C R, Side: L R, LFE
  • Sampling rate                            : 48.0 KHz
  • Bit depth                                : 16 bits
  • Compression mode                         : Lossy
  • Stream size                              : 406 MiB (2%)
  • Title                                    : Jurassic.Park.1993.1080p.3D.BluRay.Half-SBS.x264.DTS-HR.7.1-RARBG
  • Language                                 : Russian
  • Default                                  : No
  • Forced                                   : No


  • Audio #7
  • ID                                       : 8
  • Format                                   : AC-3
  • Format/Info                              : Audio Coding 3
  • Mode extension                           : CM (complete main)
  • Format settings, Endianness              : Big
  • Codec ID                                 : A_AC3
  • Duration                                 : 2h 6mn
  • Bit rate mode                            : Constant
  • Bit rate                                 : 448 Kbps
  • Channel(s)                               : 2 channels
  • Channel positions                        : Front: L R
  • Sampling rate                            : 48.0 KHz
  • Bit depth                                : 16 bits
  • Compression mode                         : Lossy
  • Stream size                              : 406 MiB (2%)
  • Title                                    : Jurassic.Park.1993.1080p.3D.BluRay.Half-SBS.x264.DTS-HR.7.1-RARBG
  • Language                                 : Thai
  • Default                                  : No
  • Forced                                   : No


  • Text #1
  • ID                                       : 9
  • Format                                   : PGS
  • Muxing mode                              : zlib
  • Codec ID                                 : S_HDMV/PGS
  • Codec ID/Info                            : Picture based subtitle format used on BDs/HD-DVDs
  • Language                                 : English
  • Default                                  : No
  • Forced                                   : No


  • Text #2
  • ID                                       : 10
  • Format                                   : PGS
  • Muxing mode                              : zlib
  • Codec ID                                 : S_HDMV/PGS
  • Codec ID/Info                            : Picture based subtitle format used on BDs/HD-DVDs
  • Language                                 : Czech
  • Default                                  : No
  • Forced                                   : No


  • Text #3
  • ID                                       : 11
  • Format                                   : PGS
  • Muxing mode                              : zlib
  • Codec ID                                 : S_HDMV/PGS
  • Codec ID/Info                            : Picture based subtitle format used on BDs/HD-DVDs
  • Language                                 : Hungarian
  • Default                                  : No
  • Forced                                   : No


  • Text #4
  • ID                                       : 12
  • Format                                   : PGS
  • Muxing mode                              : zlib
  • Codec ID                                 : S_HDMV/PGS
  • Codec ID/Info                            : Picture based subtitle format used on BDs/HD-DVDs
  • Language                                 : Polish
  • Default                                  : No
  • Forced                                   : No


  • Text #5
  • ID                                       : 13
  • Format                                   : PGS
  • Muxing mode                              : zlib
  • Codec ID                                 : S_HDMV/PGS
  • Codec ID/Info                            : Picture based subtitle format used on BDs/HD-DVDs
  • Language                                 : Russian
  • Default                                  : No
  • Forced                                   : No


  • Text #6
  • ID                                       : 14
  • Format                                   : PGS
  • Muxing mode                              : zlib
  • Codec ID                                 : S_HDMV/PGS
  • Codec ID/Info                            : Picture based subtitle format used on BDs/HD-DVDs
  • Language                                 : Thai
  • Default                                  : No
  • Forced                                   : No


  • Text #7
  • ID                                       : 15
  • Format                                   : PGS
  • Muxing mode                              : zlib
  • Codec ID                                 : S_HDMV/PGS
  • Codec ID/Info                            : Picture based subtitle format used on BDs/HD-DVDs
  • Language                                 : Bulgarian
  • Default                                  : No
  • Forced                                   : No


  • Text #8
  • ID                                       : 16
  • Format                                   : PGS
  • Muxing mode                              : zlib
  • Codec ID                                 : S_HDMV/PGS
  • Codec ID/Info                            : Picture based subtitle format used on BDs/HD-DVDs
  • Language                                 : Chinese
  • Default                                  : No
  • Forced                                   : No


  • Text #9
  • ID                                       : 17
  • Format                                   : PGS
  • Muxing mode                              : zlib
  • Codec ID                                 : S_HDMV/PGS
  • Codec ID/Info                            : Picture based subtitle format used on BDs/HD-DVDs
  • Language                                 : Korean
  • Default                                  : No
  • Forced                                   : No


  • Text #10
  • ID                                       : 18
  • Format                                   : PGS
  • Muxing mode                              : zlib
  • Codec ID                                 : S_HDMV/PGS
  • Codec ID/Info                            : Picture based subtitle format used on BDs/HD-DVDs
  • Language                                 : Arabic
  • Default                                  : No
  • Forced                                   : No


  • Text #11
  • ID                                       : 19
  • Format                                   : PGS
  • Muxing mode                              : zlib
  • Codec ID                                 : S_HDMV/PGS
  • Codec ID/Info                            : Picture based subtitle format used on BDs/HD-DVDs
  • Language                                 : Chinese
  • Default                                  : No
  • Forced                                   : No


  • Text #12
  • ID                                       : 20
  • Format                                   : PGS
  • Muxing mode                              : zlib
  • Codec ID                                 : S_HDMV/PGS
  • Codec ID/Info                            : Picture based subtitle format used on BDs/HD-DVDs
  • Language                                 : Czech
  • Default                                  : No
  • Forced                                   : No


  • Text #13
  • ID                                       : 21
  • Format                                   : PGS
  • Muxing mode                              : zlib
  • Codec ID                                 : S_HDMV/PGS
  • Codec ID/Info                            : Picture based subtitle format used on BDs/HD-DVDs
  • Language                                 : Hungarian
  • Default                                  : No
  • Forced                                   : No


  • Text #14
  • ID                                       : 22
  • Format                                   : PGS
  • Muxing mode                              : zlib
  • Codec ID                                 : S_HDMV/PGS
  • Codec ID/Info                            : Picture based subtitle format used on BDs/HD-DVDs
  • Language                                 : Russian
  • Default                                  : No
  • Forced                                   : No


  • Text #15
  • ID                                       : 23
  • Format                                   : PGS
  • Muxing mode                              : zlib
  • Codec ID                                 : S_HDMV/PGS
  • Codec ID/Info                            : Picture based subtitle format used on BDs/HD-DVDs
  • Language                                 : Thai
  • Default                                  : No
  • Forced                                   : No


  • Menu
  • 00:00:00.000                             : en01)00:00:00:000
  • 00:05:22.196                             : en02)00:05:22:196
  • 00:10:17.116                             : en03)00:10:17:116
  • 00:15:19.418                             : en04)00:15:19:418
  • 00:19:35.591                             : en05)00:19:35:591
  • 00:23:49.177                             : en06)00:23:49:177
  • 00:31:42.525                             : en07)00:31:42:525
  • 00:38:01.570                             : en000:38:01:570
  • 00:40:29.051                             : en09)00:40:29:051
  • 00:55:30.410                             : en10)00:55:30:410
  • 01:01:45.618                             : en11)01:01:45:618
  • 01:10:46.492                             : en12)01:10:46:492
  • 01:20:03.507                             : en13)01:20:03:507
  • 01:34:06.349                             : en14)01:34:06:349
  • 01:39:47.690                             : en15)01:39:47:690
  • 01:43:45.552                             : en16)01:43:45:552
  • 01:47:59.222                             : en17)01:47:59:222
  • 01:54:47.755                             : en101:54:47:755
  • 01:58:06.788                             : en19)01:58:06:788
  • 01:59:58.357                             : en20)01:59:58:357





                                                                                                                                                                                                       

                                                                                                                       
                                                                                                                                                                                                                                                        Jurassic.Park.1993.1080p.3D.BluRay.Half-SBS.x264.DTS-HR.7.1-RARBG.torrent (94.56 KB, 下载次数: 0)

回复

使用道具 举报

小黑屋|百度云资源论坛 |网站地图

本网站所有资源来自网络,如无意中侵犯了您的权益,请发邮件至 [email protected],立即清除相关链接

GMT+8, 2019-11-22 10:30 , Processed in 0.093681 second(s), 27 queries .

Powered by Discuz! X3.2

© 2001-2013 Comsenz Inc.

快速回复 返回顶部 返回列表