百度云资源论坛

 找回密码
 立即注册
搜索

[剧情片] 巴黎春梦/烈爱灼身/欲望巴黎/瓦泰尔 Vatel.2000.1080p.BluRay.x264.DTS-FGT 8.6GB ... ...

[复制链接]
电影首发 发表于 2015-7-4 07:45:00 | 显示全部楼层 |阅读模式

译  名 巴黎春梦/烈爱灼身(台)/欲望巴黎/瓦泰尔
片  名 Vatel
年  代 2000
国  家 法国/英国/比利时
类  别 传记/剧情/爱情
语  言 英语
上映日期 2000-05-10
片  长 103 分钟/125 分钟(阿根廷)
导  演 罗兰·约菲 Roland Joffé
主  演 杰拉尔·德帕迪约 Gérard Depardieu
      乌玛·瑟曼 Uma Thurman
      蒂姆·罗斯 Tim Roth


简  介


  故事发生在1671年的法国,王公贵族们纸醉金迷的奢侈生活让百姓们陷入了水深火热和民不聊生的糟糕境地中,愤怒和反抗的情绪日益增加。可是,即便是在这样的情况下,库德王子(朱利安·格洛弗 Julian Glover 饰)满脑子里想着的,依旧是如何讨好自己的父亲路易十四(朱利安·山德斯 Julian Sands 饰)。为此,库德王子决定举办一个为期三天的壮大宴会,他将此任务全权交给了侍从瓦尔特(杰拉尔·德帕迪约 Gérard Depardieu 饰)处理。
  瓦尔特出色的完成了王子交代给他的任务,宴会上的所有来宾都对他们的所闻所见感到满意和惊奇。一个名叫安妮(乌玛·瑟曼 Uma Thurman 饰)的贵妇的出现让瓦尔特坠入了情网,不幸的是,路易十四似乎也想要得到安妮。在如此强大的情敌面前,瓦尔特陷入了痛苦之中。


获奖情况


  第73届奥斯卡金像奖 (2001)
  最佳美术指导(提名) Françoise Benoît-Fresco / Jean Rabasse


Video
ID                                       : 1
Format                                   : AVC
Format/Info                              : Advanced Video Codec
Format profile                           : High@L4.1
Format settings, CABAC                   : Yes
Format settings, ReFrames                : 5 frames
Codec ID                                 : V_MPEG4/ISO/AVC
Duration                                 : 1h 57mn
Bit rate                                 : 9 010 Kbps
Width                                    : 1 920 pixels
Height                                   : 816 pixels
Display aspect ratio                     : 2.35:1
Frame rate mode                          : Constant
Frame rate                               : 24.000 fps
Color space                              : YUV
Chroma subsampling                       : 4:2:0
Bit depth                                : 8 bits
Scan type                                : Progressive
Bits/(Pixel*Frame)                       : 0.240
Stream size                              : 7.20 GiB (84%)
Writing library                          : x264 core 146 r2538 121396c
Encoding settings                        : cabac=1 / ref=5 / deblock=1:-3:-3 / analyse=0x3:0x133 / me=umh / subme=8 / psy=1 / psy_rd=1.00:0.15 / mixed_ref=1 / me_range=16 / chroma_me=1 / trellis=1 / 8x8dct=1 / cqm=0 / deadzone=21,11 / fast_pskip=0 / chroma_qp_offset=-3 / threads=18 / lookahead_threads=3 / sliced_threads=0 / nr=0 / decimate=1 / interlaced=0 / bluray_compat=0 / constrained_intra=0 / bframes=3 / b_pyramid=2 / b_adapt=2 / b_bias=0 / direct=3 / weightb=1 / open_gop=0 / weightp=2 / keyint=240 / keyint_min=24 / scenecut=40 / intra_refresh=0 / rc_lookahead=50 / rc=2pass / mbtree=1 / bitrate=9010 / ratetol=1.0 / qcomp=0.60 / qpmin=0 / qpmax=69 / qpstep=4 / cplxblur=20.0 / qblur=0.5 / ip_ratio=1.40 / aq=1:1.00
Language                                 : English
Default                                  : Yes
Forced                                   : No

Audio
ID                                       : 2
Format                                   : DTS
Format/Info                              : Digital Theater Systems
Mode                                     : 16
Format settings, Endianness              : Big
Codec ID                                 : A_DTS
Duration                                 : 1h 57mn
Bit rate mode                            : Constant
Bit rate                                 : 1 509 Kbps
Channel(s)                               : 6 channels
Channel positions                        : Front: L C R, Side: L R, LFE
Sampling rate                            : 48.0 KHz
Bit depth                                : 24 bits
Compression mode                         : Lossy
Stream size                              : 1.23 GiB (14%)
Language                                 : English
Default                                  : Yes
Forced                                   : No

Menu
00:00:00.000                             : en:00:00:00.000
00:10:42.875                             : en:00:10:42.875
00:20:51.333                             : en:00:20:51.333
00:30:07.500                             : en:00:30:07.500
00:41:43.083                             : en:00:41:43.083
00:49:54.916                             : en:00:49:54.916
00:59:17.458                             : en:00:59:17.458
01:05:30.041                             : en:01:05:30.041
01:17:39.041                             : en:01:17:39.041
01:31:39.458                             : en:01:31:39.458
01:39:19.041                             : en:01:39:19.041
01:46:58.708                             : en:01:46:58.708









                                                                                                                                                                                                       

                                                                                                                       
                                                                                                                                                                                                                                                        Vatel.2000.1080p.BluRay.x264.DTS-FGT.torrent (86.62 KB, 下载次数: 0)

回复

使用道具 举报

小黑屋|百度云资源论坛 |网站地图

本网站所有资源来自网络,如无意中侵犯了您的权益,请发邮件至 aa635343@outlook.com,立即清除相关链接

GMT+8, 2019-9-16 12:01 , Processed in 0.090459 second(s), 27 queries .

Powered by Discuz! X3.2

© 2001-2013 Comsenz Inc.

快速回复 返回顶部 返回列表