百度云资源论坛

 找回密码
 立即注册
搜索

[喜剧片] 颤栗时刻/留低你个死人头 Curdled.1996.1080p.BluRay.x264.DTS-FGT 7.01GB

[复制链接]
电影首发 发表于 2015-7-2 08:27:00 | 显示全部楼层 |阅读模式

译  名 颤栗时刻/留低你个死人头
片  名 Curdled
年  代 1996
国  家 美国
类  别 喜剧/犯罪/惊悚
语  言 英语/西班牙语
上映日期 1996-09-06
片  长 88 分钟
导  演 Reb Braddock
主  演 威廉·鲍德温 William Baldwin
      安琪拉·琼斯 Angela Jones


简  介


  好莱坞怪才昆汀塔伦蒂诺的电影一向以情节怪诞充满黑色幽默而著称。他1996年监制的电影《留低你个死人头》也不例外,说的是女主角嘉比拉自幼便对杀人事件充满好奇,一直都想要知道究竟割下的人头是否会有知觉,是否还会说话?正好这时发生了一连串凶案———一名冷血杀手以凶残的手段谋杀 了数名社交名嫒,并把她们的头割下。嘉比拉把握机会,决定对此案件进行深入调查。
  盖布莉(安琪拉琼丝饰)小时候曾在谋杀现场目睹尸体,造成她潜意识中对这种奇异经验有一点害怕,又有一点好奇。由于住在高犯罪率的迈阿密,盖布莉仍对谋杀案的细节存著浓厚的兴趣,每天还仔细收看相关新闻、作剪报。迈阿密发生连续断头命案,受害者均为多金少妇,凶手因此被冠上「贵族杀手」(威廉鲍德温饰)的称号;盖布莉对于这位神秘杀手的行凶动机一样抱持强烈的好奇心。为了更接近案件真相,盖布莉竟然前往一家专门清理命案善后的清洁公司应徵女佣,并恰巧来到「贵族杀手」最近犯案的地点,谁知道····。


Video
ID                                       : 1
Format                                   : AVC
Format/Info                              : Advanced Video Codec
Format profile                           : [email protected]
Format settings, CABAC                   : Yes
Format settings, ReFrames                : 4 frames
Codec ID                                 : V_MPEG4/ISO/AVC
Duration                                 : 1h 29mn
Bit rate                                 : 9 756 Kbps
Width                                    : 1 920 pixels
Height                                   : 1 040 pixels
Display aspect ratio                     : 1.85:1
Frame rate mode                          : Constant
Frame rate                               : 23.976 fps
Color space                              : YUV
Chroma subsampling                       : 4:2:0
Bit depth                                : 8 bits
Scan type                                : Progressive
Bits/(Pixel*Frame)                       : 0.204
Stream size                              : 5.93 GiB (85%)
Writing library                          : x264 core 80 r1376 3feaec2
Encoding settings                        : cabac=1 / ref=4 / deblock=1:0:0 / analyse=0x3:0x2 / me=umh / subme=7 / psy=1 / psy_rd=1.0:0.0 / mixed_ref=1 / me_range=16 / chroma_me=1 / trellis=1 / 8x8dct=1 / cqm=0 / deadzone=21,11 / fast_pskip=0 / chroma_qp_offset=-2 / threads=6 / sliced_threads=0 / nr=0 / decimate=1 / mbaff=0 / constrained_intra=0 / bframes=3 / b_pyramid=2 / b_adapt=1 / b_bias=0 / direct=3 / wpredb=1 / wpredp=0 / keyint=250 / keyint_min=25 / scenecut=40 / rc=2pass / mbtree=0 / bitrate=9756 / ratetol=1.0 / qcomp=0.60 / qpmin=10 / qpmax=51 / qpstep=4 / cplxblur=20.0 / qblur=0.5 / ip_ratio=1.40 / pb_ratio=1.30 / aq=1:1.00
Language                                 : English
Default                                  : Yes
Forced                                   : No

Audio
ID                                       : 2
Format                                   : DTS
Format/Info                              : Digital Theater Systems
Mode                                     : 16
Format settings, Endianness              : Big
Codec ID                                 : A_DTS
Duration                                 : 1h 29mn
Bit rate mode                            : Constant
Bit rate                                 : 1 509 Kbps
Channel(s)                               : 6 channels
Channel positions                        : Front: L C R, Side: L R, LFE
Sampling rate                            : 48.0 KHz
Bit depth                                : 24 bits
Compression mode                         : Lossy
Stream size                              : 961 MiB (13%)
Language                                 : English
Default                                  : Yes
Forced                                   : No

Text
ID                                       : 3
Format                                   : UTF-8
Codec ID                                 : S_TEXT/UTF8
Codec ID/Info                            : UTF-8 Plain Text
Language                                 : English
Default                                  : Yes
Forced                                   : No






                                                                                                                                                                                                       

                                                                                                                       
                                                                                                                                                                                                                                                        Curdled.1996.1080p.BluRay.x264.DTS-FGT.torrent (70.65 KB, 下载次数: 0)

回复

使用道具 举报

小黑屋|百度云资源论坛 |网站地图

本网站所有资源来自网络,如无意中侵犯了您的权益,请发邮件至 [email protected],立即清除相关链接

GMT+8, 2020-9-22 09:11 , Processed in 0.115642 second(s), 27 queries .

Powered by Discuz! X3.2

© 2001-2013 Comsenz Inc.

快速回复 返回顶部 返回列表