百度云资源论坛

 找回密码
 立即注册
搜索

土拨鼠之日/偷天情缘/土拨鼠日 Groundhog.Day.1993.1080p.BluRay.x264.DTS-FGT 8.12GB ...

[复制链接]
电影首发 发表于 2015-7-1 08:17:00 | 显示全部楼层 |阅读模式

译  名 土拨鼠之日/偷天情缘/土拨鼠日/圣烛节/今天暂时停止/二月二日圣烛节
片  名 Groundhog Day
年  代 1993
国  家 美国
类  别 剧情/喜剧/爱情/奇幻
语  言 英语/法语/意大利语
上映日期 1993-02-12(美国)
片  长 101分钟
导  演 哈罗德·雷米斯 Harold Ramis
主  演 比尔·默瑞 Bill Murray
      安迪·麦克道威尔 Andie MacDowell
      克里斯·艾略特 Chris Elliott
      斯蒂芬·托布罗斯基 Stephen Tobolowsky
      布赖恩·道尔 Brian Doyle
      瑞克·欧弗顿 Rick Overton
      威利·加森 Willie Garson
      Angela Paton
      Rick Ducommun
      Robin Duke
      Ken Hudson Campbell
      Les Podewell


简  介


  菲尔(Bill Murray饰)是个气象播报员,每天除了在摄像机前给观众做风趣幽默的天气预报外,每年的2月2日他还要前往一个名为普苏塔尼的边境小镇,报导当地的土拨鼠日庆典。
  事实上,菲尔对这一节日相当嗤之以鼻并开始对工作感到厌倦,当他例行公事完成今年的报导后,便急不可待地想重返家园,却因为一场突如其来的暴风雪耽搁了。
  第2天醒来后,菲尔意外地发现时间仍然停留在前一天土拨鼠日,昨日的一切重新上演。惊讶、不信、刺激、狂喜、烦闷、焦虑、不安、绝望、倦怠等各种情绪轮流侵占菲尔的感官领域,可无论他如何选择度过这一天,他都始终无法再前进一步,开始了他重复的人生。



Video
ID                                       : 1
Format                                   : AVC
Format/Info                              : Advanced Video Codec
Format profile                           : High@L4.1
Format settings, CABAC                   : Yes
Format settings, ReFrames                : 4 frames
Codec ID                                 : V_MPEG4/ISO/AVC
Duration                                 : 1h 41mn
Bit rate                                 : 10 000 Kbps
Width                                    : 1 920 pixels
Height                                   : 1 040 pixels
Display aspect ratio                     : 1.85:1
Frame rate mode                          : Constant
Frame rate                               : 23.976 fps
Color space                              : YUV
Chroma subsampling                       : 4:2:0
Bit depth                                : 8 bits
Scan type                                : Progressive
Bits/(Pixel*Frame)                       : 0.209
Stream size                              : 6.89 GiB (85%)
Writing library                          : x264 core 142 r2479 dd79a61
Encoding settings                        : cabac=1 / ref=3 / deblock=1:0:0 / analyse=0x3:0x113 / me=hex / subme=7 / psy=1 / psy_rd=1.00:0.00 / mixed_ref=1 / me_range=16 / chroma_me=1 / trellis=1 / 8x8dct=1 / cqm=0 / deadzone=21,11 / fast_pskip=1 / chroma_qp_offset=-2 / threads=12 / lookahead_threads=2 / sliced_threads=0 / nr=0 / decimate=1 / interlaced=0 / bluray_compat=0 / constrained_intra=0 / bframes=3 / b_pyramid=2 / b_adapt=1 / b_bias=0 / direct=1 / weightb=1 / open_gop=0 / weightp=2 / keyint=240 / keyint_min=24 / scenecut=40 / intra_refresh=0 / rc_lookahead=40 / rc=abr / mbtree=1 / bitrate=10000 / ratetol=1.0 / qcomp=0.60 / qpmin=0 / qpmax=69 / qpstep=4 / vbv_maxrate=62500 / vbv_bufsize=78125 / nal_hrd=none / filler=0 / ip_ratio=1.40 / aq=1:1.00
Language                                 : English
Default                                  : Yes
Forced                                   : No
Color range                              : Limited
Color primaries                          : BT.709
Transfer characteristics                 : BT.709
Matrix coefficients                      : BT.709

Audio
ID                                       : 2
Format                                   : DTS
Format/Info                              : Digital Theater Systems
Mode                                     : 16
Format settings, Endianness              : Big
Codec ID                                 : A_DTS
Duration                                 : 1h 41mn
Bit rate mode                            : Constant
Bit rate                                 : 1 510 Kbps
Channel(s)                               : 6 channels
Channel positions                        : Front: L C R, Side: L R, LFE
Sampling rate                            : 48.0 KHz
Bit depth                                : 24 bits
Compression mode                         : Lossy
Stream size                              : 1.07 GiB (13%)
Language                                 : English
Default                                  : Yes
Forced                                   : No

Text
ID                                       : 3
Format                                   : ASS
Codec ID                                 : S_TEXT/ASS
Codec ID/Info                            : Advanced Sub Station Alpha
Compression mode                         : Lossless
Language                                 : English
Default                                  : No
Forced                                   : No





                                                                                                                                                                                                       

                                                                                                                       
                                                                                                                                                                                                                                                        Groundhog.Day.1993.1080p.BluRay.x264.DTS-FGT.torrent (81.8 KB, 下载次数: 130)

回复

使用道具 举报

小黑屋|百度云资源论坛 |网站地图

本网站所有资源来自网络,如无意中侵犯了您的权益,请发邮件至 aa635343@outlook.com,立即清除相关链接

GMT+8, 2019-6-20 07:08 , Processed in 0.098959 second(s), 27 queries .

Powered by Discuz! X3.2

© 2001-2013 Comsenz Inc.

快速回复 返回顶部 返回列表