百度云资源论坛

 找回密码
 立即注册
搜索

[动画片] 火星需要妈妈/拯救老妈大作战 Mars.Needs.Moms.2011.1080p.BluRay.x264.DTS-FGT 6.56G ...

[复制链接]
电影首发 发表于 2015-6-28 10:18:00 | 显示全部楼层 |阅读模式

译  名 火星需要妈妈/拯救老妈大作战/火星救母记
片  名 Mars Needs Moms!
年  代 2011
国  家 美国
类  别 动画/家庭
语  言 英语
上映日期 2011-03-11(美国)
片  长 88分钟
导  演 西蒙·威尔斯 Simon Wells
主  演 赛斯·格林 Seth Green
      琼·库萨克 Joan Cusack
      伊莉莎白·哈诺伊斯 Elisabeth Harnois
      丹·福勒 Dan Fogler
      明迪·斯特林 Mindy Sterling
      Julene Renee
      瑞恩·奥查 Ryan Ochoa
      Jacquie Barnbrook


简  介


  在一个宁静的夜晚,少年迈洛和妈妈发生争吵。自感言语过于伤人,迈洛决定向妈妈道歉,前看见黑暗中一道强光将妈妈虏去。他一路追赶,登上了那艘神秘的飞船,竟意外来到了万里之遥的火星。原来火星人都从土壤中长出,住在火星的雌性不知如何照顾孩子,因此发明了保姆机器人,并从地球上劫持她们相中的母亲,提取她的记忆和经验输入机器人的程序中。迈洛从躲藏在火星垃圾站附近的人类格里布口中得知,妈妈的记忆在提取后将忘记一切。在格里布和火星女孩葵的帮助下,迈洛展开了营救妈妈的不可能任务……
  本片根据插画师伯克利•布雷斯德(Berkeley Breathed)的原著改编。


Video
ID                                       : 1
Format                                   : AVC
Format/Info                              : Advanced Video Codec
Format profile                           : [email protected]
Format settings, CABAC                   : Yes
Format settings, ReFrames                : 5 frames
Codec ID                                 : V_MPEG4/ISO/AVC
Duration                                 : 1h 28mn
Bit rate                                 : 9 145 Kbps
Width                                    : 1 920 pixels
Height                                   : 800 pixels
Display aspect ratio                     : 2.40:1
Frame rate mode                          : Constant
Frame rate                               : 23.976 fps
Color space                              : YUV
Chroma subsampling                       : 4:2:0
Bit depth                                : 8 bits
Scan type                                : Progressive
Bits/(Pixel*Frame)                       : 0.248
Stream size                              : 5.50 GiB (84%)
Writing library                          : x264 core 116 r2019 9cc407d
Encoding settings                        : cabac=1 / ref=5 / deblock=1:0:0 / analyse=0x3:0x133 / me=umh / subme=7 / psy=1 / psy_rd=1.00:0.00 / mixed_ref=1 / me_range=16 / chroma_me=1 / trellis=1 / 8x8dct=1 / cqm=0 / deadzone=21,11 / fast_pskip=0 / chroma_qp_offset=-2 / threads=12 / sliced_threads=0 / nr=0 / decimate=1 / interlaced=0 / bluray_compat=0 / constrained_intra=0 / bframes=3 / b_pyramid=2 / b_adapt=1 / b_bias=0 / direct=1 / weightb=1 / open_gop=0 / weightp=2 / keyint=250 / keyint_min=23 / scenecut=40 / intra_refresh=0 / rc_lookahead=40 / rc=2pass / mbtree=1 / bitrate=9145 / ratetol=1.0 / qcomp=0.60 / qpmin=0 / qpmax=69 / qpstep=4 / cplxblur=20.0 / qblur=0.5 / ip_ratio=1.40 / aq=1:1.00
Language                                 : English
Default                                  : Yes
Forced                                   : No

Audio
ID                                       : 2
Format                                   : DTS
Format/Info                              : Digital Theater Systems
Mode                                     : 16
Format settings, Endianness              : Big
Codec ID                                 : A_DTS
Duration                                 : 1h 28mn
Bit rate mode                            : Constant
Bit rate                                 : 1 509 Kbps
Channel(s)                               : 6 channels
Channel positions                        : Front: L C R, Side: L R, LFE
Sampling rate                            : 48.0 KHz
Bit depth                                : 24 bits
Compression mode                         : Lossy
Delay relative to video                  : 11ms
Stream size                              : 951 MiB (14%)
Language                                 : English
Default                                  : Yes
Forced                                   : No

Text
ID                                       : 3
Format                                   : UTF-8
Codec ID                                 : S_TEXT/UTF8
Codec ID/Info                            : UTF-8 Plain Text
Language                                 : English
Default                                  : Yes
Forced                                   : No

Menu
00:00:00.000                             : en:00:00:00.000
00:04:04.578                             : en:00:04:04.578
00:09:15.013                             : en:00:09:15.013
00:13:56.836                             : en:00:13:56.836
00:19:13.402                             : en:00:19:13.402
00:28:13.901                             : en:00:28:13.901
00:34:29.776                             : en:00:34:29.776
00:40:19.250                             : en:00:40:19.250
00:47:15.624                             : en:00:47:15.624
00:56:49.781                             : en:00:56:49.781
01:09:03.348                             : en:01:09:03.348
01:21:25.422                             : en:01:21:25.422






                                                                                                                                                                                                       

                                                                                                                       
                                                                                                                                                                                                                                                        Mars.Needs.Moms.2011.1080p.BluRay.x264.DTS-FGT.torrent (66.16 KB, 下载次数: 0)

回复

使用道具 举报

小黑屋|百度云资源论坛

本网站所有资源来自网络,如无意中侵犯了您的权益,请发邮件至 [email protected],立即清除相关链接

GMT+8, 2024-7-22 19:51 , Processed in 0.103142 second(s), 30 queries .

Powered by Discuz! X3.2

© 2001-2013 Comsenz Inc.

快速回复 返回顶部 返回列表