百度云资源论坛

 找回密码
 立即注册
搜索

[BT下载][比佛利山超级警探4][WebDL-MKV/4.66GB][中字][1080P][美国2024动作喜剧] ... ...

[复制链接]
admin 发表于 2024-7-10 06:09:28 | 显示全部楼层 |阅读模式
海报





译  名 比佛利山超级警探4/比佛利山超级警探:艾索·福里/妙探出差:艾索福里
片  名 Beverly Hills Cop: Axel F
年  代 2024
国  家 美国
类  别 动作/喜剧/犯罪/惊悚
语  言 英语
字  幕 中简/中繁/英文
评  分 6.6/10 from 31,256 users
链  接 https://www.imdb.com/title/tt3083016
文件大小 4.66 GB
片  长 118 Min
导  演 马克·莫洛伊 Mark Molloy
主  演 艾迪·墨菲 Eddie Murphy
     祖德·莱茵霍尔德 Judge Reinhold
     约瑟夫·高登-莱维特 Joseph Gordon-Levitt
     约翰·阿什顿 John Ashton
     泰勒·佩姬 Taylour Paige
     凯文·贝肯 Kevin Bacon
     保罗·雷瑟 Paul Reiser
     布隆森·皮诺切特 Bronson Pinchot
     帕特里夏·贝尔彻 Patricia Belcher
     詹姆斯·普雷斯顿·罗杰斯 James Preston Rogers
     乔瓦尼·克鲁兹 Giovannie Cruz

简介

  侦探艾索·福里(艾迪·墨菲 饰)回到了比佛利山庄。在女儿的生命受到威胁后,她(泰勒·佩姬 饰)和福里与新搭档(约瑟夫·高登-莱维特 饰)、老朋友比利·罗斯伍德(祖德·莱茵霍尔德 饰)和约翰·塔格特(约翰·阿什顿 饰)联手,掀起了一场风波,揭露了一个阴谋。


Video
Format : AVC
Format/Info : Advanced Video Codec
Format settings : CABAC / 3 Ref Frames
Format settings, CABAC : Yes
Format settings, Reference fra : 3 frames
Codec ID : V_MPEG4/ISO/AVC
Duration : 1 h 57 min
Bit rate mode : Variable
Bit rate : 5 000 kb/s
Maximum bit rate : 7 500 kb/s
Width : 1 920 pixels
Height : 1 080 pixels
Display aspect ratio : 16:9
Frame rate mode : Constant
Frame rate : 24.000 FPS
Color space : YUV
Chroma subsampling : 4:2:0
Bit depth : 8 bits
Scan type : Progressive
Bits/(Pixel*Frame) : 0.100
Stream size : 4.02 GiB (86%)

Audio
Format : E-AC-3 JOC
Format/Info : Enhanced AC-3 with Joint Object Coding
Commercial name : Dolby Digital Plus with Dolby Atmos
Codec ID : A_EAC3
Duration : 1 h 57 min
Bit rate mode : Constant
Bit rate : 768 kb/s
Channel(s) : 6 channels
Channel layout : L R C LFE Ls Rs
Sampling rate : 48.0 kHz
Frame rate : 31.250 FPS (1536 SPF)
Compression mode : Lossy
Stream size : 648 MiB (14%)
Language : English
Service kind : Complete Main
Complexity index : 16
Number of dynamic objects : 15
Bed channel count : 1 channel
Bed channel configuration : LFE


截图






  

回复

使用道具 举报

小黑屋|百度云资源论坛

本网站所有资源来自网络,如无意中侵犯了您的权益,请发邮件至 [email protected],立即清除相关链接

GMT+8, 2024-7-22 08:43 , Processed in 0.074893 second(s), 26 queries .

Powered by Discuz! X3.2

© 2001-2013 Comsenz Inc.

快速回复 返回顶部 返回列表