百度云资源论坛

 找回密码
 立即注册
搜索

[BT下载][猩球崛起:新世界][WebDL-MKV/7.36GB][中字][1080P][美国2024视效巨制] ... ...

[复制链接]
admin 发表于 2024-7-10 06:09:25 | 显示全部楼层 |阅读模式
海报









译  名 猩球崛起:新世界/猩球崛起4:新世界/猿人争霸战:猩凶帝国(港) / 猩球崛起:王国诞生(台)/人猿星球国度
片  名 Kingdom of the Planet of the Apes
年  代 2024
国  家 美国
类  别 动作/科幻/冒险
语  言 英语
字  幕 中简/中繁/英文
评  分 6.3/10 from 44,277 users
链  接 https://movie.douban.com/subject/36069854
文件大小 7.36 GB
片  长 145 Min
导  演 韦斯·鲍尔 Wes Ball
主  演 欧文·泰格 Owen Teague
     弗蕾娅·艾伦 Freya Allan
     凯文·杜兰 Kevin Durand
     彼德·梅肯 Peter Macon
     威廉姆·H·梅西 William H. Macy
     艾卡·达维尔 Eka Darville
     特拉维斯·杰弗里 Travis Jeffery
     莉迪亚·佩克汉 Lydia Peckham
     尼尔·桑迪兰兹 Neil Sandilands
     迪辰·拉克曼 Dichen Lachman
     拉斯-塞缪尔·瓦尔达布兹 Ras-Samuel Welda'abzgi

简介

  故事设定在“猿流感”病毒蔓延全球的背景下,人类几近毁灭,而进化为高级智慧生物的猿类一跃成为食物链顶端的王者。时移世异,暴虐的猿类首领赛撒(凯文·杜兰 饰)在一片废墟中建立起猿族历史上的第一个帝国——“猩球”崛起,这是世界新秩序诞生的黎明时分。神秘的人类女孩诺娃(弗蕾娅·艾伦 饰)的出现,引起了赛撒的警觉。她似乎掌握着一个巨大的秘密,不仅关乎人类的存亡,甚至可能再度颠覆整个“猩球”。被迫逃亡的诺娃在躲避赛撒军队的过程中,与青年猿类诺亚(欧文·泰格 饰)的命运交汇,揭开了一段冒险的旅程。


Video
Format : AVC
Format/Info : Advanced Video Codec
Format settings : CABAC / 5 Ref Frames
Format settings, CABAC : Yes
Format settings, Reference fra : 5 frames
Codec ID : V_MPEG4/ISO/AVC
Duration : 2 h 24 min
Bit rate : 6 513 kb/s
Width : 1 918 pixels
Height : 802 pixels
Display aspect ratio : 2.40:1
Frame rate mode : Constant
Frame rate : 24.000 FPS
Color space : YUV
Chroma subsampling : 4:2:0
Bit depth : 8 bits
Scan type : Progressive
Bits/(Pixel*Frame) : 0.176
Stream size : 6.58 GiB (89%)
Color range : Limited
Color primaries : BT.709
Transfer characteristics : BT.709
Matrix coefficients : BT.709

Audio
Format : E-AC-3 JOC
Format/Info : Enhanced AC-3 with Joint Object Coding
Commercial name : Dolby Digital Plus with Dolby Atmos
Codec ID : A_EAC3
Duration : 2 h 24 min
Bit rate mode : Constant
Bit rate : 768 kb/s
Channel(s) : 6 channels
Channel layout : L R C LFE Ls Rs
Sampling rate : 48.0 kHz
Frame rate : 31.250 FPS (1536 SPF)
Compression mode : Lossy
Stream size : 795 MiB (11%)
Language : English
Service kind : Complete Main
Complexity index : 16
Number of dynamic objects : 15
Bed channel count : 1 channel
Bed channel configuration : LFE


截图






  

回复

使用道具 举报

小黑屋|百度云资源论坛

本网站所有资源来自网络,如无意中侵犯了您的权益,请发邮件至 [email protected],立即清除相关链接

GMT+8, 2024-7-22 07:45 , Processed in 0.121682 second(s), 26 queries .

Powered by Discuz! X3.2

© 2001-2013 Comsenz Inc.

快速回复 返回顶部 返回列表