百度云资源论坛

 找回密码
 立即注册
搜索

[BT下载][如何做爱][WebDL-MKV/5.89GB][中字][1080P][英2023最新青春性暴力剧情] ... ...

[复制链接]
admin 发表于 2024-7-9 05:08:05 | 显示全部楼层 |阅读模式
海报









译  名 如何做爱/第一次
片  名 How to Have Sex
年  代 2023
国  家 英国/希腊
类  别 剧情
语  言 英语
字  幕 中简/中繁/英文
评  分 6.6/10 from 5,865 users
链  接 https://www.imdb.com/title/tt22890246
文件大小 5.89 GB
片  长 91 Min
导  演 莫莉·曼宁·沃尔克 Molly Manning Walker
主  演 米娅·麦肯纳·布鲁斯 Mia McKenna-Bruce
     拉腊·皮克 Lara Peake
     肖恩·托马斯 Shaun Thomas
     塞缪尔·博顿利 Samuel Bottomley
     恩瓦·刘易斯 Enva Lewis
     劳拉·安布勒 Laura Ambler
     黛西·杰利 Daisy Jelley
     艾利德·罗安 Eilidh Loan
     埃利奥特·沃伦 Elliot Warren

简介

  在该片中,导演继续她对性暴力的探索,深入到一个典型的英国成年仪式中:年轻女性在马略卡岛度假,在狂欢中失去她们的贞操。观众会跟随三个好朋友Zara、Em和Sky的旅程,与她们一同面对集体意识和同辈人竞争压力。


Video
Format : AVC
Format/Info : Advanced Video Codec
Format settings : CABAC / 4 Ref Frames
Format settings, CABAC : Yes
Format settings, Reference fra : 4 frames
Codec ID : V_MPEG4/ISO/AVC
Duration : 1 h 30 min
Bit rate mode : Constant
Bit rate : 8 938 kb/s
Nominal bit rate : 10 000 kb/s
Width : 1 920 pixels
Height : 1 040 pixels
Display aspect ratio : 1.85:1
Frame rate mode : Constant
Frame rate : 24.000 FPS
Color space : YUV
Chroma subsampling : 4:2:0
Bit depth : 8 bits
Scan type : Progressive
Bits/(Pixel*Frame) : 0.187
Stream size : 5.68 GiB (96%)
Color range : Limited
Color primaries : BT.709
Transfer characteristics : BT.709
Matrix coefficients : BT.709

Audio
Format : E-AC-3
Format/Info : Enhanced AC-3
Commercial name : Dolby Digital Plus
Codec ID : A_EAC3
Duration : 1 h 30 min
Bit rate mode : Constant
Bit rate : 320 kb/s
Channel(s) : 6 channels
Channel layout : L R C LFE Ls Rs
Sampling rate : 48.0 kHz
Frame rate : 31.250 FPS (1536 SPF)
Compression mode : Lossy
Delay relative to video : 20 ms
Stream size : 208 MiB (3%)
Language : English
Service kind : Complete Main


截图






  

回复

使用道具 举报

小黑屋|百度云资源论坛

本网站所有资源来自网络,如无意中侵犯了您的权益,请发邮件至 [email protected],立即清除相关链接

GMT+8, 2024-7-22 08:46 , Processed in 0.982861 second(s), 26 queries .

Powered by Discuz! X3.2

© 2001-2013 Comsenz Inc.

快速回复 返回顶部 返回列表