百度云资源论坛

 找回密码
 立即注册
搜索

[BT下载][地狱里的天堂][WebDL-MKV/3.15GB][中字][1080P][波兰2023大尺度限制级] ... ...

[复制链接]
admin 发表于 2024-7-8 04:07:28 | 显示全部楼层 |阅读模式
海报









译  名 地狱里的天堂/禁忌之欲(台)
片  名 Heaven in Hell
年  代 2023
国  家 波兰
类  别 剧情/爱情
语  言 波兰语/英语
字  幕 繁中硬字幕
评  分 4.9/10 from 307 users
链  接 https://movie.douban.com/subject/36070925
文件大小 3.15 GB
片  长 120 Min
导  演 托马斯·曼丁斯 Tomasz Mandes
主  演 玛达琳娜·波扎斯卡 Magdalena Boczarska
     西蒙·苏西纳 Simone Susinna
     卡塔琳娜·萨芙楚克 Katarzyna Sawczuk
     赛巴斯汀·法比杰斯基 Sebastian Fabijanski
     Katarzyna Kwiatkowska
     杰尼斯·查比尔 Janusz Chabior
     Monika Fronczek
     Borys Jaznicki

简介

  奥尔加和马克思相差15岁。她是一位身居要职的成功女性,是一位年轻成年女性的母亲,而他则是一位致力于享受生活的英俊青年。命运让他们相遇,但也考验着他们的感情。


Video
Format : AVC
Format/Info : Advanced Video Codec
Format settings : CABAC / 1 Ref Frames
Format settings, CABAC : Yes
Format settings, Reference fra : 1 frame
Format settings, GOP : M=1, N=60
Codec ID : V_MPEG4/ISO/AVC
Duration : 1 h 59 min
Bit rate mode : Constant
Bit rate : 3 680 kb/s
Nominal bit rate : 4 000 kb/s
Width : 1 920 pixels
Height : 1 080 pixels
Display aspect ratio : 16:9
Frame rate mode : Constant
Frame rate : 29.970 (30000/1001) FPS
Color space : YUV
Chroma subsampling : 4:2:0
Bit depth : 8 bits
Scan type : Progressive
Bits/(Pixel*Frame) : 0.059
Stream size : 3.07 GiB (97%)

Audio
Format : E-AC-3
Format/Info : Enhanced AC-3
Commercial name : Dolby Digital Plus
Codec ID : A_EAC3
Duration : 1 h 59 min
Bit rate mode : Constant
Bit rate : 96.0 kb/s
Channel(s) : 2 channels
Channel layout : L R
Sampling rate : 48.0 kHz
Frame rate : 31.250 FPS (1536 SPF)
Compression mode : Lossy
Stream size : 82.1 MiB (3%)
Language : Polish
Service kind : Complete Main


截图














  

回复

使用道具 举报

小黑屋|百度云资源论坛

本网站所有资源来自网络,如无意中侵犯了您的权益,请发邮件至 [email protected],立即清除相关链接

GMT+8, 2024-7-22 06:56 , Processed in 0.077293 second(s), 26 queries .

Powered by Discuz! X3.2

© 2001-2013 Comsenz Inc.

快速回复 返回顶部 返回列表