百度云资源论坛

 找回密码
 立即注册
搜索

[BD-4K] 黑衣人 Men.in.Black.1997.2160p.BCORE.WEB-DL.x265.10bit.HDR.DTS-HD.MA.TrueHD.7.1. ...

[复制链接]
admin 发表于 2021-12-4 17:07:58 | 显示全部楼层 |阅读模式
黑衣人 Men.in.Black.1997.2160p.BCORE.WEB-DL.x265.10bit.HDR.DTS-HD.MA.TrueHD.7.1.Atm                                                                                                                                                                              -->
帖子完整标题:黑衣人 Men.in.Black.1997.2160p.BCORE.WEB-DL.x265.10bit.HDR.DTS-HD.MA.TrueHD.7.1.Atmos-SWTYBLZ 60.17GB





◎译  名 黑衣人/MIB/MIB星际战警(台)/黑超特警组(港)
◎片  名 Men in Black
◎年  代 1997
◎产  地 美国
◎类  别 喜剧 / 动作 / 科幻
◎语  言 英语,西班牙语
◎上映日期 1997-07-02(美国)
◎豆瓣评分 8.2/10 from 296705 users
◎ 
◎片  长 98分钟
◎导  演 巴里·索南菲尔德 Barry Sonnenfeld
◎编  剧 艾德·索罗门 Ed Solomon / 劳威尔·坎宁安Lowell Cunningham
◎主  演 威尔·史密斯 Will Smith
     汤米·李·琼斯 Tommy Lee Jones
     琳达·费奥伦蒂诺 Linda Fiorentino
     文森特·多诺费奥 Vincent D'Onofrio
     雷普·汤恩 Rip Torn
     托尼·夏尔赫布 Tony Shalhoub
     卡雷尔·斯特鲁基 Carel Struycken
     弗瑞德里克·林恩 Fredric Lehne
     查尔斯·C·史蒂文森 Charles C. Stevenson Jr.
     理查德-汉密尔顿 Richard Hamilton
     迈克·努斯鲍姆 Mike Nussbaum
     丹尼·德维托 Danny DeVito
     史蒂文·斯皮尔伯格 Steven Spielberg
     强·格瑞斯 Jon Gries
     希博汗·法隆 Siobhan Fallon
     大卫·克罗斯 David Cross
     乔治·卢卡斯 George Lucas
     Mushu Mushu

◎标  签 科幻 | 美国 | 喜剧 | 外星人 | 动作 | 搞笑 | 经典 | 1997

◎简  介

  地球并不只是人类的天下,其实有1500名外星人生活中我们当中,而星际移民局则处理和外星人相关的事情。
  
  纽约普通警察爱德华兹(威尔·史密斯 饰)因缘际会之下加入了这一组织,成为MIB的一员,代号J,从此没有名字、没有身份,成为特警K(汤姆·李·琼斯 饰)的搭档。
  
  J应对的 第一起事件就是虫族的入侵。亚基伦王子罗斯伯在地球被虫族杀害,而他随身携带的“银河系”——宇宙次原子能源的最好来源也失踪了,若虫族找到,将给亚基伦人带来毁灭性的打击;亚基伦人发出最后通牒,如果地球人不能在一个小时之内交出“银河系”,他们就摧毁地球。
  
  为了地球的安全,K和J不得不挺身而出。

◎获奖情况

  第70届奥斯卡金像奖 ?(1998)
  最佳艺术指导(提名) 谢丽尔·卡拉西克?/?博·维尔奇
  最佳化妆 里克·贝克?/?戴维·勒罗伊·安德森
  音乐/喜剧片最佳原创配乐(提名) 丹尼·艾夫曼
  
  第55届金球奖 ?(1998)
  电影类最佳音乐/喜剧片(提名)
Video
ID             : 1
Format           : HEVC
Format/Info          : High Efficiency Video Coding
Format profile         : Main @High
HDR format           : SMPTE ST 2086, HDR10 compatible
Codec ID           : V_MPEGH/ISO/HEVC
Duration           : 1 h 37 min
Bit rate           : 76.6 Mb/s
Width            : 3 840 pixels
Height           : 2 160 pixels
Display aspect ratio       : 16:9
Frame rate mode        : Constant
Frame rate           : 23.976 (24000/1001/189150) FPS
Color space          : YUV
Chroma subsampling       : 4:2:0 (Type 2)
Bit depth          : 10 bits
Bits/(Pixel*Frame)       : 0.385
Stream size          : 52.4 GiB (87%)
Default            : Yes
Forced           : No
Color range          : Full
Color primaries        : BT.2020
Transfer characteristics     : PQ
Matrix coefficients        : BT.2020 non-constant
Mastering display color primaries  : Display P3
Mastering display luminance    : min: 0.0050 cd/m2, max: 4000 cd/m2

Audio #1
ID             : 2
Format           : MLP FBA 16-ch
Format/Info          : Meridian Lossless Packing FBA with 16-channel presentation
Commercial name        : Dolby TrueHD with Dolby Atmos
Codec ID           : A_TRUEHD
Duration           : 1 h 37 min
Bit rate mode          : Variable
Bit rate           : 5 779 kb/s
Maximum bit rate         : 8 544 kb/s
Channel(s)           : 8 channels
Channel layout         : L R C LFE Ls Rs Lb Rb
Sampling rate          : 48.0 kHz
Frame rate           : 1 200.000 FPS (40 SPF)
Compression mode         : Lossless
Stream size          : 3.95 GiB (7%)
Title            : TrueHD 7.1 Atmos
Language           : English
Default            : Yes
Forced           : No
Number of dynamic objects      : 11
Bed channel count        : 1 channel
Bed channel configuration      : LFE

Audio #2
ID             : 3
Format           : DTS XLL
Format/Info          : Digital Theater Systems
Commercial name        : DTS-HD Master Audio
Codec ID           : A_DTS
Duration           : 1 h 37 min
Bit rate mode          : Variable
Bit rate           : 4 471 kb/s
Channel(s)           : 8 channels
Channel layout         : C L R LFE Lb Rb Lss Rss
Sampling rate          : 48.0 kHz
Frame rate           : 93.750 FPS (512 SPF)
Bit depth          : 24 bits
Compression mode         : Lossless
Stream size          : 3.06 GiB (5%)
Title            : DTS-HD MA 7.1
Language           : English
Default            : No
Forced           : No

Audio #3
ID             : 4
Format           : AC-3
Format/Info          : Audio Coding 3
Commercial name        : Dolby Digital
Codec ID           : A_AC3
Duration           : 1 h 37 min
Bit rate mode          : Constant
Bit rate           : 640 kb/s
Channel(s)           : 6 channels
Channel layout         : L R C LFE Ls Rs
Sampling rate          : 48.0 kHz
Frame rate           : 31.250 FPS (1536 SPF)
Compression mode         : Lossy
Stream size          : 448 MiB (1%)
Title            : DD 5.1
Language           : English
Service kind         : Complete Main
Default            : No
Forced           : No

Text #1
ID             : 5
Format           : UTF-8
Codec ID           : S_TEXT/UTF8
Codec ID/Info          : UTF-8 Plain Text
Duration           : 1 h 32 min
Bit rate           : 94 b/s
Count of elements        : 1393
Stream size          : 64.0 KiB (0%)
Language           : English
Default            : Yes
Forced           : No

Text #2
ID             : 6
Format           : UTF-8
Codec ID           : S_TEXT/UTF8
Codec ID/Info          : UTF-8 Plain Text
Duration           : 1 h 32 min
Bit rate           : 97 b/s
Count of elements        : 1393
Stream size          : 65.8 KiB (0%)
Title            : SDH
Language           : English
Default            : No
Forced           : No

Text #3
ID             : 7
Format           : PGS
Muxing mode          : zlib
Codec ID           : S_HDMV/PGS
Codec ID/Info          : Picture based subtitle format used on BDs/HD-DVDs
Duration           : 1 h 37 min
Bit rate           : 41.2 kb/s
Count of elements        : 2834
Stream size          : 28.8 MiB (0%)
Title            : English-PGS
Language           : English
Default            : No
Forced           : No

Text #4
ID             : 8
Format           : PGS
Muxing mode          : zlib
Codec ID           : S_HDMV/PGS
Codec ID/Info          : Picture based subtitle format used on BDs/HD-DVDs
Duration           : 1 h 34 min
Bit rate           : 33.9 kb/s
Count of elements        : 2133
Stream size          : 23.0 MiB (0%)
Title            : English-SDH-PGS
Language           : English
Default            : No
Forced           : No

Text #5
ID             : 9
Format           : PGS
Muxing mode          : zlib
Codec ID           : S_HDMV/PGS
Codec ID/Info          : Picture based subtitle format used on BDs/HD-DVDs
Duration           : 1 h 37 min
Bit rate           : 41.2 kb/s
Count of elements        : 2834
Stream size          : 28.8 MiB (0%)
Title            : English-PGS
Language           : English
Default            : No
Forced           : No

Text #6
ID             : 10
Format           : PGS
Muxing mode          : zlib
Codec ID           : S_HDMV/PGS
Codec ID/Info          : Picture based subtitle format used on BDs/HD-DVDs
Duration           : 1 h 34 min
Bit rate           : 33.9 kb/s
Count of elements        : 2135
Stream size          : 23.0 MiB (0%)
Title            : English-SDH-PGS
Language           : English
Default            : No
Forced           : No

Text #7
ID             : 11
Format           : PGS
Muxing mode          : zlib
Codec ID           : S_HDMV/PGS
Codec ID/Info          : Picture based subtitle format used on BDs/HD-DVDs
Duration           : 1 h 27 min
Bit rate           : 18.4 kb/s
Count of elements        : 2183
Stream size          : 11.5 MiB (0%)
Title            : Arabic-PGS
Language           : Arabic
Default            : No
Forced           : No

Text #8
ID             : 12
Format           : PGS
Muxing mode          : zlib
Codec ID           : S_HDMV/PGS
Codec ID/Info          : Picture based subtitle format used on BDs/HD-DVDs
Duration           : 1 h 27 min
Bit rate           : 27.1 kb/s
Count of elements        : 2213
Stream size          : 16.9 MiB (0%)
Title            : Chinese-PGS
Language           : Chinese
Default            : No
Forced           : No

Text #9
ID             : 13
Format           : PGS
Muxing mode          : zlib
Codec ID           : S_HDMV/PGS
Codec ID/Info          : Picture based subtitle format used on BDs/HD-DVDs
Duration           : 1 h 27 min
Bit rate           : 28.9 kb/s
Count of elements        : 2159
Stream size          : 18.0 MiB (0%)
Title            : Chinese-PGS
Language           : Chinese
Default            : No
Forced           : No

Text #10
ID             : 14
Format           : PGS
Muxing mode          : zlib
Codec ID           : S_HDMV/PGS
Codec ID/Info          : Picture based subtitle format used on BDs/HD-DVDs
Duration           : 1 h 27 min
Bit rate           : 29.6 kb/s
Count of elements        : 2177
Stream size          : 18.5 MiB (0%)
Title            : Czech-PGS
Language           : Czech
Default            : No
Forced           : No

Text #11
ID             : 15
Format           : PGS
Muxing mode          : zlib
Codec ID           : S_HDMV/PGS
Codec ID/Info          : Picture based subtitle format used on BDs/HD-DVDs
Duration           : 1 h 27 min
Bit rate           : 27.4 kb/s
Count of elements        : 1510
Stream size          : 17.1 MiB (0%)
Title            : Danish-PGS
Language           : Danish
Default            : No
Forced           : No

Text #12
ID             : 16
Format           : PGS
Muxing mode          : zlib
Codec ID           : S_HDMV/PGS
Codec ID/Info          : Picture based subtitle format used on BDs/HD-DVDs
Duration           : 1 h 27 min
Bit rate           : 27.3 kb/s
Count of elements        : 1520
Stream size          : 17.1 MiB (0%)
Title            : Dutch-PGS
Language           : Dutch
Default            : No
Forced           : No

Text #13
ID             : 17
Format           : PGS
Muxing mode          : zlib
Codec ID           : S_HDMV/PGS
Codec ID/Info          : Picture based subtitle format used on BDs/HD-DVDs
Duration           : 1 h 27 min
Bit rate           : 26.9 kb/s
Count of elements        : 1466
Stream size          : 16.8 MiB (0%)
Title            : Finnish-PGS
Language           : Finnish
Default            : No
Forced           : No

Text #14
ID             : 18
Format           : PGS
Muxing mode          : zlib
Codec ID           : S_HDMV/PGS
Codec ID/Info          : Picture based subtitle format used on BDs/HD-DVDs
Duration           : 1 h 34 min
Bit rate           : 25.4 kb/s
Count of elements        : 2177
Stream size          : 17.2 MiB (0%)
Title            : French-PGS
Language           : French
Default            : No
Forced           : No

Text #15
ID             : 19
Format           : PGS
Muxing mode          : zlib
Codec ID           : S_HDMV/PGS
Codec ID/Info          : Picture based subtitle format used on BDs/HD-DVDs
Duration           : 1 h 27 min
Bit rate           : 37.6 kb/s
Count of elements        : 2247
Stream size          : 23.4 MiB (0%)
Title            : German-PGS
Language           : German
Default            : No
Forced           : No

Text #16
ID             : 20
Format           : PGS
Muxing mode          : zlib
Codec ID           : S_HDMV/PGS
Codec ID/Info          : Picture based subtitle format used on BDs/HD-DVDs
Duration           : 1 h 27 min
Bit rate           : 32.0 kb/s
Count of elements        : 2177
Stream size          : 20.1 MiB (0%)
Title            : Greek-PGS
Language           : Greek
Default            : No
Forced           : No

Text #17
ID             : 21
Format           : PGS
Muxing mode          : zlib
Codec ID           : S_HDMV/PGS
Codec ID/Info          : Picture based subtitle format used on BDs/HD-DVDs
Duration           : 1 h 27 min
Bit rate           : 28.5 kb/s
Count of elements        : 2223
Stream size          : 17.7 MiB (0%)
Title            : Hungarian-PGS
Language           : Hungarian
Default            : No
Forced           : No

Text #18
ID             : 22
Format           : PGS
Muxing mode          : zlib
Codec ID           : S_HDMV/PGS
Codec ID/Info          : Picture based subtitle format used on BDs/HD-DVDs
Duration           : 1 h 27 min
Bit rate           : 28.5 kb/s
Count of elements        : 2269
Stream size          : 17.8 MiB (0%)
Title            : Italian-PGS
Language           : Italian
Default            : No
Forced           : No

Text #19
ID             : 23
Format           : PGS
Muxing mode          : zlib
Codec ID           : S_HDMV/PGS
Codec ID/Info          : Picture based subtitle format used on BDs/HD-DVDs
Duration           : 1 h 36 min
Bit rate           : 20.6 kb/s
Count of elements        : 2267
Stream size          : 14.3 MiB (0%)
Title            : Korean-PGS
Language           : Korean
Default            : No
Forced           : No

Text #20
ID             : 24
Format           : PGS
Muxing mode          : zlib
Codec ID           : S_HDMV/PGS
Codec ID/Info          : Picture based subtitle format used on BDs/HD-DVDs
Duration           : 1 h 27 min
Bit rate           : 25.5 kb/s
Count of elements        : 1498
Stream size          : 15.9 MiB (0%)
Title            : Norwegian-PGS
Language           : Norwegian
Default            : No
Forced           : No

Text #21
ID             : 25
Format           : PGS
Muxing mode          : zlib
Codec ID           : S_HDMV/PGS
Codec ID/Info          : Picture based subtitle format used on BDs/HD-DVDs
Duration           : 1 h 27 min
Bit rate           : 27.0 kb/s
Count of elements        : 2031
Stream size          : 16.8 MiB (0%)
Title            : Polish-PGS
Language           : Polish
Default            : No
Forced           : No

Text #22
ID             : 26
Format           : PGS
Muxing mode          : zlib
Codec ID           : S_HDMV/PGS
Codec ID/Info          : Picture based subtitle format used on BDs/HD-DVDs
Duration           : 1 h 29 min
Bit rate           : 31.8 kb/s
Count of elements        : 2209
Stream size          : 20.3 MiB (0%)
Title            : Portuguese-PGS
Language           : Portuguese
Default            : No
Forced           : No

Text #23
ID             : 27
Format           : PGS
Muxing mode          : zlib
Codec ID           : S_HDMV/PGS
Codec ID/Info          : Picture based subtitle format used on BDs/HD-DVDs
Duration           : 1 h 29 min
Bit rate           : 34.5 kb/s
Count of elements        : 2249
Stream size          : 22.0 MiB (0%)
Title            : Portuguese-PGS
Language           : Portuguese
Default            : No
Forced           : No

Text #24
ID             : 28
Format           : PGS
Muxing mode          : zlib
Codec ID           : S_HDMV/PGS
Codec ID/Info          : Picture based subtitle format used on BDs/HD-DVDs
Duration           : 1 h 29 min
Bit rate           : 30.0 kb/s
Count of elements        : 2245
Stream size          : 19.1 MiB (0%)
Title            : Romanian-PGS
Language           : Romanian
Default            : No
Forced           : No

Text #25
ID             : 29
Format           : PGS
Muxing mode          : zlib
Codec ID           : S_HDMV/PGS
Codec ID/Info          : Picture based subtitle format used on BDs/HD-DVDs
Duration           : 1 h 29 min
Bit rate           : 31.8 kb/s
Count of elements        : 2231
Stream size          : 20.3 MiB (0%)
Title            : Russian-PGS
Language           : Russian
Default            : No
Forced           : No

Text #26
ID             : 30
Format           : PGS
Muxing mode          : zlib
Codec ID           : S_HDMV/PGS
Codec ID/Info          : Picture based subtitle format used on BDs/HD-DVDs
Duration           : 1 h 34 min
Bit rate           : 30.3 kb/s
Count of elements        : 2179
Stream size          : 20.6 MiB (0%)
Title            : Slovak-PGS
Language           : Slovak
Default            : No
Forced           : No

Text #27
ID             : 31
Format           : PGS
Muxing mode          : zlib
Codec ID           : S_HDMV/PGS
Codec ID/Info          : Picture based subtitle format used on BDs/HD-DVDs
Duration           : 1 h 27 min
Bit rate           : 27.1 kb/s
Count of elements        : 2201
Stream size          : 16.9 MiB (0%)
Title            : Spanish-PGS
Language           : Spanish
Default            : No
Forced           : No

Text #28
ID             : 32
Format           : PGS
Muxing mode          : zlib
Codec ID           : S_HDMV/PGS
Codec ID/Info          : Picture based subtitle format used on BDs/HD-DVDs
Duration           : 1 h 29 min
Bit rate           : 33.6 kb/s
Count of elements        : 2167
Stream size          : 21.4 MiB (0%)
Title            : Spanish-PGS
Language           : Spanish
Default            : No
Forced           : No

Text #29
ID             : 33
Format           : PGS
Muxing mode          : zlib
Codec ID           : S_HDMV/PGS
Codec ID/Info          : Picture based subtitle format used on BDs/HD-DVDs
Duration           : 1 h 34 min
Bit rate           : 23.7 kb/s
Count of elements        : 1457
Stream size          : 16.1 MiB (0%)
Title            : Swedish-PGS
Language           : Swedish
Default            : No
Forced           : No

Text #30
ID             : 34
Format           : PGS
Muxing mode          : zlib
Codec ID           : S_HDMV/PGS
Codec ID/Info          : Picture based subtitle format used on BDs/HD-DVDs
Duration           : 1 h 27 min
Bit rate           : 30.2 kb/s
Count of elements        : 2213
Stream size          : 18.8 MiB (0%)
Title            : Thai-PGS
Language           : Thai
Default            : No
Forced           : No

Text #31
ID             : 35
Format           : PGS
Muxing mode          : zlib
Codec ID           : S_HDMV/PGS
Codec ID/Info          : Picture based subtitle format used on BDs/HD-DVDs
Duration           : 1 h 27 min
Bit rate           : 31.4 kb/s
Count of elements        : 2207
Stream size          : 19.6 MiB (0%)
Title            : Turkish-PGS
Language           : Turkish
Default            : No
Forced           : No

Text #32
ID             : 36
Format           : PGS
Muxing mode          : zlib
Codec ID           : S_HDMV/PGS
Codec ID/Info          : Picture based subtitle format used on BDs/HD-DVDs
Duration           : 1 h 27 min
Bit rate           : 23.9 kb/s
Count of elements        : 2108
Stream size          : 14.9 MiB (0%)
Title            : Japanese-PGS
Language           : Japanese
Default            : No
Forced           : No

Menu
00:00:00.000         : en:Chapter 1
00:09:46.419         : en:Chapter 2
00:12:46.807         : en:Chapter 3
00:18:12.341         : en:Chapter 4
00:25:31.446         : en:Chapter 5
00:29:14.544         : en:Chapter 6
00:37:19.195         : en:Chapter 7
00:43:18.554         : en:Chapter 8
00:49:58.328         : en:Chapter 9
00:54:29.391         : en:Chapter 10
01:00:51.522         : en:Chapter 11
01:06:24.689         : en:Chapter 12
01:08:55.548         : en:Chapter 13
01:14:56.909         : en:Chapter 14
01:19:39.149         : en:Chapter 15
01:29:49.634         : en:Chapter 16





                                                                  
                                                                                                                                                                                                                                                                                 
e71e1d283c9aa8cc9155200a520409f3.torrent (75.9 KB, 下载次数: 0)

回复

使用道具 举报

小黑屋|百度云资源论坛

本网站所有资源来自网络,如无意中侵犯了您的权益,请发邮件至 [email protected],立即清除相关链接

GMT+8, 2024-7-22 07:00 , Processed in 0.106982 second(s), 30 queries .

Powered by Discuz! X3.2

© 2001-2013 Comsenz Inc.

快速回复 返回顶部 返回列表