百度云资源论坛

 找回密码
 立即注册
搜索

[BD-4K] 玛丽亚·凯莉的圣诞节:魔法继续/玛丽亚·凯莉的奇幻圣诞节2 Mariahs.Christmas.The.Ma ...

[复制链接]
admin 发表于 2021-12-4 17:07:58 | 显示全部楼层 |阅读模式
玛丽亚·凯莉的圣诞节:魔法继续/玛丽亚·凯莉的奇幻圣诞节2 Mariahs.Christmas.The.Magic.Continues.2021.2160p.A                                                                                                                                                                              -->
帖子完整标题:玛丽亚·凯莉的圣诞节:魔法继续/玛丽亚·凯莉的奇幻圣诞节2 Mariahs.Christmas.The.Magic.Continues.2021.2160p.ATVP.WEB-DL.DDP5.1.Atmos.DV.MP4.x265-DVSUX 3.25GB





◎译  名 玛丽亚·凯莉的圣诞节:魔法继续/玛丽亚·凯莉的奇幻圣诞节2
◎片  名 Mariah's Christmas: The Magic Continues
◎年  代 2021
◎产  地 美国
◎类  别 音乐 / 歌舞
◎语  言 英语
◎上映日期 2021-12-03(美国网络)
◎豆瓣评分 /10 from 0 users
◎ 
◎导  演 约瑟夫·卡安 Joseph Kahn
◎主  演 玛丽亚·凯莉 Mariah Carey
     Kirk Franklin Kirk Franklin

◎简  介

  “Mariah’s Christmas: The Magic Continues” is a highly anticipated holiday special that will reveal the first and only performance of the multi-Grammy Award-winning global icon’s new single, “Fall in Love at Christmas.” Mariah Carey is joined by Grammy-nominated worldwide artist Khalid and Grammy-winning legend Kirk Franklin, as they bring the spirit of Christmas to fans around the world. The Queen of Christmas will also ring in the holidays with a dazzling, new rendition of fan favorite, “Christmas (Baby Please Come Home).”
  
  The holiday spectacular will also feature an exclusive interview with Apple Music’s Zane Lowe and Carey, along with her 10-year-old twins, son Moroccan and daughter Monroe, as they share favorite holiday moments, and Carey celebrates her beloved holiday classic, “All I Want For Christmas Is You,” and Apple TV+’s perennial smash hit, “Mariah Carey's Magical Christmas Special.”
Video
ID             : 1
Format           : HEVC
Format/Info          : High Efficiency Video Coding
Format profile         : Main @High
HDR format           : Dolby Vision, Version 1.0, dvhe.05.06, BL+RPU
Codec ID           : dvhe
Codec ID/Info          : High Efficiency Video Coding with Dolby Vision
Duration           : 18 min 15 s
Bit rate           : 24.7 Mb/s
Width            : 3 840 pixels
Height           : 2 160 pixels
Display aspect ratio       : 16:9
Frame rate mode        : Constant
Frame rate           : 23.976 (24000/1001/189150) FPS
Color space          : YUV
Chroma subsampling       : 4:2:0
Bit depth          : 10 bits
Bits/(Pixel*Frame)       : 0.124
Stream size          : 3.15 GiB (97%)
Default            : Yes
Alternate group        : 1
Encoded date         : UTC 2021-12-03 08:04:46
Tagged date          : UTC 2021-12-03 08:12:04
Codec configuration box      : hvcC+dvcC

Audio
ID             : 2
Format           : E-AC-3 JOC
Format/Info          : Enhanced AC-3 with Joint Object Coding
Commercial name        : Dolby Digital Plus with Dolby Atmos
Codec ID           : ec-3
Duration           : 18 min 15 s
Bit rate mode          : Constant
Bit rate           : 768 kb/s
Maximum bit rate         : 811 kb/s
Channel(s)           : 6 channels
Channel layout         : L R C LFE Ls Rs
Sampling rate          : 48.0 kHz
Frame rate           : 31.250 FPS (1536 SPF)
Compression mode         : Lossy
Stream size          : 100 MiB (3%)
Title            : English
Language           : English
Service kind         : Complete Main
Default            : Yes
Alternate group        : 1
Tagged date          : UTC 2021-12-03 08:12:04
Complexity index         : Not present / 16
Number of dynamic objects      : 15
Bed channel count        : 1 channel
Bed channel configuration      : LFE

Text #1
ID             : 3
Format           : Timed Text
Codec ID           : tx3g
Duration           : 17 min 11 s
Bit rate mode          : Variable
Bit rate           : 115 b/s
Stream size          : 14.5 KiB (0%)
Title            : English
Language           : English
Forced           : No
Encoded date         : UTC 2021-12-03 08:12:03
Tagged date          : UTC 2021-12-03 08:12:04

Text #2
ID             : 4
Format           : Timed Text
Codec ID           : tx3g
Duration           : 17 min 16 s
Bit rate mode          : Variable
Bit rate           : 131 b/s
Stream size          : 16.6 KiB (0%)
Title            : English
Language           : English
Forced           : No
Encoded date         : UTC 2021-12-03 08:12:03
Tagged date          : UTC 2021-12-03 08:12:04

Text #3
ID             : 5
Format           : Timed Text
Codec ID           : tx3g
Duration           : 18 min 6 s
Bit rate mode          : Variable
Bit rate           : 152 b/s
Stream size          : 20.2 KiB (0%)
Title            : Arabic
Language           : Arabic
Forced           : No
Encoded date         : UTC 2021-12-03 08:12:03
Tagged date          : UTC 2021-12-03 08:12:04

Text #4
ID             : 6
Format           : Timed Text
Codec ID           : tx3g
Duration           : 18 min 6 s
Bit rate mode          : Variable
Bit rate           : 144 b/s
Stream size          : 19.1 KiB (0%)
Title            : Bulgarian
Language           : Bulgarian
Forced           : No
Encoded date         : UTC 2021-12-03 08:12:03
Tagged date          : UTC 2021-12-03 08:12:04

Text #5
ID             : 7
Format           : Timed Text
Codec ID           : tx3g
Duration           : 18 min 6 s
Bit rate mode          : Variable
Bit rate           : 103 b/s
Stream size          : 13.6 KiB (0%)
Title            : Czech
Language           : Czech
Forced           : No
Encoded date         : UTC 2021-12-03 08:12:03
Tagged date          : UTC 2021-12-03 08:12:04

Text #6
ID             : 8
Format           : Timed Text
Codec ID           : tx3g
Duration           : 18 min 6 s
Bit rate mode          : Variable
Bit rate           : 56 b/s
Stream size          : 7.49 KiB (0%)
Title            : Danish
Language           : Danish
Forced           : No
Encoded date         : UTC 2021-12-03 08:12:03
Tagged date          : UTC 2021-12-03 08:12:04

Text #7
ID             : 9
Format           : Timed Text
Codec ID           : tx3g
Duration           : 18 min 6 s
Bit rate mode          : Variable
Bit rate           : 85 b/s
Stream size          : 11.2 KiB (0%)
Title            : Dutch
Language           : Dutch
Forced           : No
Encoded date         : UTC 2021-12-03 08:12:03
Tagged date          : UTC 2021-12-03 08:12:04

Text #8
ID             : 10
Format           : Timed Text
Codec ID           : tx3g
Duration           : 18 min 6 s
Bit rate mode          : Variable
Bit rate           : 93 b/s
Stream size          : 12.4 KiB (0%)
Title            : Estonian
Language           : Estonian
Forced           : No
Encoded date         : UTC 2021-12-03 08:12:03
Tagged date          : UTC 2021-12-03 08:12:04

Text #9
ID             : 11
Format           : Timed Text
Codec ID           : tx3g
Duration           : 18 min 6 s
Bit rate mode          : Variable
Bit rate           : 98 b/s
Stream size          : 13.0 KiB (0%)
Title            : Finnish
Language           : Finnish
Forced           : No
Encoded date         : UTC 2021-12-03 08:12:03
Tagged date          : UTC 2021-12-03 08:12:04

Text #10
ID             : 12
Format           : Timed Text
Codec ID           : tx3g
Duration           : 18 min 6 s
Bit rate mode          : Variable
Bit rate           : 99 b/s
Stream size          : 13.1 KiB (0%)
Title            : French
Language           : French
Forced           : No
Encoded date         : UTC 2021-12-03 08:12:03
Tagged date          : UTC 2021-12-03 08:12:04

Text #11
ID             : 13
Format           : Timed Text
Codec ID           : tx3g
Duration           : 18 min 6 s
Bit rate mode          : Variable
Bit rate           : 99 b/s
Stream size          : 13.1 KiB (0%)
Title            : French
Language           : French
Forced           : No
Encoded date         : UTC 2021-12-03 08:12:03
Tagged date          : UTC 2021-12-03 08:12:04

Text #12
ID             : 14
Format           : Timed Text
Codec ID           : tx3g
Duration           : 18 min 6 s
Bit rate mode          : Variable
Bit rate           : 98 b/s
Stream size          : 13.0 KiB (0%)
Title            : German
Language           : German
Forced           : No
Encoded date         : UTC 2021-12-03 08:12:04
Tagged date          : UTC 2021-12-03 08:12:04

Text #13
ID             : 15
Format           : Timed Text
Codec ID           : tx3g
Duration           : 18 min 6 s
Bit rate mode          : Variable
Bit rate           : 168 b/s
Stream size          : 22.3 KiB (0%)
Title            : Greek
Language           : Greek
Forced           : No
Encoded date         : UTC 2021-12-03 08:12:04
Tagged date          : UTC 2021-12-03 08:12:04

Text #14
ID             : 16
Format           : Timed Text
Codec ID           : tx3g
Duration           : 18 min 6 s
Bit rate mode          : Variable
Bit rate           : 138 b/s
Stream size          : 18.3 KiB (0%)
Title            : Hebrew
Language           : Hebrew
Forced           : No
Encoded date         : UTC 2021-12-03 08:12:04
Tagged date          : UTC 2021-12-03 08:12:04

Text #15
ID             : 17
Format           : Timed Text
Codec ID           : tx3g
Duration           : 18 min 6 s
Bit rate mode          : Variable
Bit rate           : 273 b/s
Stream size          : 36.1 KiB (0%)
Title            : Hindi
Language           : Hindi
Forced           : No
Encoded date         : UTC 2021-12-03 08:12:04
Tagged date          : UTC 2021-12-03 08:12:04

Text #16
ID             : 18
Format           : Timed Text
Codec ID           : tx3g
Duration           : 18 min 6 s
Bit rate mode          : Variable
Bit rate           : 99 b/s
Stream size          : 13.1 KiB (0%)
Title            : Hungarian
Language           : Hungarian
Forced           : No
Encoded date         : UTC 2021-12-03 08:12:04
Tagged date          : UTC 2021-12-03 08:12:04

Text #17
ID             : 19
Format           : Timed Text
Codec ID           : tx3g
Duration           : 18 min 6 s
Bit rate mode          : Variable
Bit rate           : 105 b/s
Stream size          : 13.9 KiB (0%)
Title            : Indonesian
Language           : Indonesian
Forced           : No
Encoded date         : UTC 2021-12-03 08:12:04
Tagged date          : UTC 2021-12-03 08:12:04

Text #18
ID             : 20
Format           : Timed Text
Codec ID           : tx3g
Duration           : 18 min 6 s
Bit rate mode          : Variable
Bit rate           : 102 b/s
Stream size          : 13.5 KiB (0%)
Title            : Italian
Language           : Italian
Forced           : No
Encoded date         : UTC 2021-12-03 08:12:04
Tagged date          : UTC 2021-12-03 08:12:04

Text #19
ID             : 21
Format           : Timed Text
Codec ID           : tx3g
Duration           : 18 min 6 s
Bit rate mode          : Variable
Bit rate           : 84 b/s
Stream size          : 11.2 KiB (0%)
Title            : Japanese
Language           : Japanese
Forced           : No
Encoded date         : UTC 2021-12-03 08:12:04
Tagged date          : UTC 2021-12-03 08:12:04

Text #20
ID             : 22
Format           : Timed Text
Codec ID           : tx3g
Duration           : 18 min 6 s
Bit rate mode          : Variable
Bit rate           : 122 b/s
Stream size          : 16.1 KiB (0%)
Title            : Korean
Language           : Korean
Forced           : No
Encoded date         : UTC 2021-12-03 08:12:04
Tagged date          : UTC 2021-12-03 08:12:04

Text #21
ID             : 23
Format           : Timed Text
Codec ID           : tx3g
Duration           : 18 min 6 s
Bit rate mode          : Variable
Bit rate           : 107 b/s
Stream size          : 14.2 KiB (0%)
Title            : Latvian
Language           : Latvian
Forced           : No
Encoded date         : UTC 2021-12-03 08:12:04
Tagged date          : UTC 2021-12-03 08:12:04

Text #22
ID             : 24
Format           : Timed Text
Codec ID           : tx3g
Duration           : 18 min 6 s
Bit rate mode          : Variable
Bit rate           : 106 b/s
Stream size          : 14.1 KiB (0%)
Title            : Lithuanian
Language           : Lithuanian
Forced           : No
Encoded date         : UTC 2021-12-03 08:12:04
Tagged date          : UTC 2021-12-03 08:12:04

Text #23
ID             : 25
Format           : Timed Text
Codec ID           : tx3g
Duration           : 18 min 6 s
Bit rate mode          : Variable
Bit rate           : 109 b/s
Stream size          : 14.4 KiB (0%)
Title            : Malay
Language           : Malay
Forced           : No
Encoded date         : UTC 2021-12-03 08:12:04
Tagged date          : UTC 2021-12-03 08:12:04

Text #24
ID             : 26
Format           : Timed Text
Codec ID           : tx3g
Duration           : 18 min 6 s
Bit rate mode          : Variable
Bit rate           : 96 b/s
Stream size          : 12.8 KiB (0%)
Title            : Norwegian
Language           : Norwegian
Forced           : No
Encoded date         : UTC 2021-12-03 08:12:04
Tagged date          : UTC 2021-12-03 08:12:04

Text #25
ID             : 27
Format           : Timed Text
Codec ID           : tx3g
Duration           : 18 min 6 s
Bit rate mode          : Variable
Bit rate           : 96 b/s
Stream size          : 12.7 KiB (0%)
Title            : Polish
Language           : Polish
Forced           : No
Encoded date         : UTC 2021-12-03 08:12:04
Tagged date          : UTC 2021-12-03 08:12:04

Text #26
ID             : 28
Format           : Timed Text
Codec ID           : tx3g
Duration           : 18 min 6 s
Bit rate mode          : Variable
Bit rate           : 102 b/s
Stream size          : 13.6 KiB (0%)
Title            : Portuguese
Language           : Portuguese
Forced           : No
Encoded date         : UTC 2021-12-03 08:12:04
Tagged date          : UTC 2021-12-03 08:12:04

Text #27
ID             : 29
Format           : Timed Text
Codec ID           : tx3g
Duration           : 18 min 6 s
Bit rate mode          : Variable
Bit rate           : 95 b/s
Stream size          : 12.6 KiB (0%)
Title            : Portuguese
Language           : Portuguese
Forced           : No
Encoded date         : UTC 2021-12-03 08:12:04
Tagged date          : UTC 2021-12-03 08:12:04

Text #28
ID             : 30
Format           : Timed Text
Codec ID           : tx3g
Duration           : 18 min 6 s
Bit rate mode          : Variable
Bit rate           : 166 b/s
Stream size          : 21.9 KiB (0%)
Title            : Russian
Language           : Russian
Forced           : No
Encoded date         : UTC 2021-12-03 08:12:04
Tagged date          : UTC 2021-12-03 08:12:04

Text #29
ID             : 31
Format           : Timed Text
Codec ID           : tx3g
Duration           : 18 min 6 s
Bit rate mode          : Variable
Bit rate           : 101 b/s
Stream size          : 13.4 KiB (0%)
Title            : Slovak
Language           : Slovak
Forced           : No
Encoded date         : UTC 2021-12-03 08:12:04
Tagged date          : UTC 2021-12-03 08:12:04

Text #30
ID             : 32
Format           : Timed Text
Codec ID           : tx3g
Duration           : 18 min 6 s
Bit rate mode          : Variable
Bit rate           : 87 b/s
Stream size          : 11.6 KiB (0%)
Title            : Slovenian
Language           : Slovenian
Forced           : No
Encoded date         : UTC 2021-12-03 08:12:04
Tagged date          : UTC 2021-12-03 08:12:04

Text #31
ID             : 33
Format           : Timed Text
Codec ID           : tx3g
Duration           : 18 min 6 s
Bit rate mode          : Variable
Bit rate           : 96 b/s
Stream size          : 12.8 KiB (0%)
Title            : Spanish-EU
Language           : Spanish
Forced           : No
Encoded date         : UTC 2021-12-03 08:12:04
Tagged date          : UTC 2021-12-03 08:12:04

Text #32
ID             : 34
Format           : Timed Text
Codec ID           : tx3g
Duration           : 18 min 6 s
Bit rate mode          : Variable
Bit rate           : 98 b/s
Stream size          : 13.0 KiB (0%)
Title            : Spanish-EU
Language           : Spanish
Forced           : No
Encoded date         : UTC 2021-12-03 08:12:04
Tagged date          : UTC 2021-12-03 08:12:04

Text #33
ID             : 35
Format           : Timed Text
Codec ID           : tx3g
Duration           : 18 min 6 s
Bit rate mode          : Variable
Bit rate           : 77 b/s
Stream size          : 10.2 KiB (0%)
Title            : Swedish
Language           : Swedish
Forced           : No
Encoded date         : UTC 2021-12-03 08:12:04
Tagged date          : UTC 2021-12-03 08:12:04

Text #34
ID             : 36
Format           : Timed Text
Codec ID           : tx3g
Duration           : 18 min 6 s
Bit rate mode          : Variable
Bit rate           : 347 b/s
Stream size          : 45.9 KiB (0%)
Title            : Tamil
Language           : Tamil
Forced           : No
Encoded date         : UTC 2021-12-03 08:12:04
Tagged date          : UTC 2021-12-03 08:12:04

Text #35
ID             : 37
Format           : Timed Text
Codec ID           : tx3g
Duration           : 18 min 6 s
Bit rate mode          : Variable
Bit rate           : 297 b/s
Stream size          : 39.4 KiB (0%)
Title            : Telugu
Language           : Telugu
Forced           : No
Encoded date         : UTC 2021-12-03 08:12:04
Tagged date          : UTC 2021-12-03 08:12:04

Text #36
ID             : 38
Format           : Timed Text
Codec ID           : tx3g
Duration           : 18 min 6 s
Bit rate mode          : Variable
Bit rate           : 257 b/s
Stream size          : 34.1 KiB (0%)
Title            : Thai
Language           : Thai
Forced           : No
Encoded date         : UTC 2021-12-03 08:12:04
Tagged date          : UTC 2021-12-03 08:12:04

Text #37
ID             : 39
Format           : Timed Text
Codec ID           : tx3g
Duration           : 18 min 6 s
Bit rate mode          : Variable
Bit rate           : 108 b/s
Stream size          : 14.3 KiB (0%)
Title            : Turkish
Language           : Turkish
Forced           : No
Encoded date         : UTC 2021-12-03 08:12:04
Tagged date          : UTC 2021-12-03 08:12:04

Text #38
ID             : 40
Format           : Timed Text
Codec ID           : tx3g
Duration           : 18 min 6 s
Bit rate mode          : Variable
Bit rate           : 147 b/s
Stream size          : 19.5 KiB (0%)
Title            : Ukrainian
Language           : Ukrainian
Forced           : No
Encoded date         : UTC 2021-12-03 08:12:04
Tagged date          : UTC 2021-12-03 08:12:04

Text #39
ID             : 41
Format           : Timed Text
Codec ID           : tx3g
Duration           : 18 min 6 s
Bit rate mode          : Variable
Bit rate           : 138 b/s
Stream size          : 18.3 KiB (0%)
Title            : Vietnamese
Language           : Vietnamese
Forced           : No
Encoded date         : UTC 2021-12-03 08:12:04
Tagged date          : UTC 2021-12-03 08:12:04





                                                                  
                                                                                                                                                                                                                                                                                 
1d071e3726dfeb2e101e82138f88a4ad.torrent (16.95 KB, 下载次数: 0)

回复

使用道具 举报

小黑屋|百度云资源论坛

本网站所有资源来自网络,如无意中侵犯了您的权益,请发邮件至 [email protected],立即清除相关链接

GMT+8, 2024-7-22 08:21 , Processed in 0.076825 second(s), 26 queries .

Powered by Discuz! X3.2

© 2001-2013 Comsenz Inc.

快速回复 返回顶部 返回列表