百度云资源论坛

 找回密码
 立即注册
搜索

[BD-4K] 谋杀游戏 This.Games.Called.Murder.2021.2160p.WEB-DL.x265.10bit.SDR.DDP5.1-NOGRP ...

[复制链接]
admin 发表于 2021-12-4 17:07:58 | 显示全部楼层 |阅读模式
谋杀游戏 This.Games.Called.Murder.2021.2160p.WEB-DL.x265.10bit.SDR.DDP5.1-NOGRP 9.20                                                                                                                                                                              -->
帖子完整标题:谋杀游戏 This.Games.Called.Murder.2021.2160p.WEB-DL.x265.10bit.SDR.DDP5.1-NOGRP 9.20GB





◎译  名 谋杀游戏
◎片  名 This Game's Called Murder
◎年  代 2021
◎产  地 美国
◎类  别 惊悚
◎语  言 英语
◎上映日期 2021-12-03(美国)
◎豆瓣评分 /10 from 0 users
◎ 
◎导  演 亚当·舍曼 Adam Sherman
◎编  剧 亚当·舍曼 Adam Sherman
◎主  演 朗·普尔曼 Ron Perlman
     瓦妮莎·马兰洛 Vanessa Marano

◎标  签 惊悚 | 2021 | 美国 | 恐怖 | 待看 | WK | Natasha_Henstridge

◎简  介

  朗·普尔曼、瓦蕾莎·马兰洛等将出演惊悚片[谋杀游戏](This Game’s Called Murder,暂译)。本片由亚当·舍曼自编自导,讲述一个充满暴力、背叛和性的荒诞主义故事。背景设定在一个被科技和社交媒体统治的世界里,在贪婪、浪漫,以及在消费者疯狂、异化的社会中,纯真荡然无存。
Video
ID             : 1
Format           : HEVC
Format/Info          : High Efficiency Video Coding
Format profile         : Main @High
Codec ID           : V_MPEGH/ISO/HEVC
Duration           : 1 h 45 min
Bit rate           : 12.0 Mb/s
Width            : 3 840 pixels
Height           : 1 914 pixels
Display aspect ratio       : 2.006
Frame rate mode        : Constant
Frame rate           : 23.976 FPS
Color space          : YUV
Chroma subsampling       : 4:2:0
Bit depth          : 10 bits
Bits/(Pixel*Frame)       : 0.068
Stream size          : 8.91 GiB (97%)
Default            : Yes
Forced           : No
Color range          : Limited
Color primaries        : BT.709
Transfer characteristics     : BT.709
Matrix coefficients        : BT.709

Audio
ID             : 2
Format           : AC-3
Format/Info          : Audio Coding 3
Commercial name        : Dolby Digital
Codec ID           : A_AC3
Duration           : 1 h 45 min
Bit rate mode          : Constant
Bit rate           : 384 kb/s
Channel(s)           : 6 channels
Channel layout         : L R C LFE Ls Rs
Sampling rate          : 48.0 kHz
Frame rate           : 31.250 FPS (1536 SPF)
Compression mode         : Lossy
Stream size          : 291 MiB (3%)
Title            : English
Language           : English
Service kind         : Complete Main
Default            : No
Forced           : No

Text
ID             : 3
Format           : UTF-8
Codec ID           : S_TEXT/UTF8
Codec ID/Info          : UTF-8 Plain Text
Duration           : 1 h 41 min
Bit rate           : 64 b/s
Count of elements        : 1479
Stream size          : 48.2 KiB (0%)
Language           : English
Default            : Yes
Forced           : No





                                                                  
                                                                                                                                                                                                                                                                                 
a30f65aa253a4ec9599a2e5d280482ea.torrent (23.66 KB, 下载次数: 0)

回复

使用道具 举报

小黑屋|百度云资源论坛

本网站所有资源来自网络,如无意中侵犯了您的权益,请发邮件至 [email protected],立即清除相关链接

GMT+8, 2024-7-22 08:44 , Processed in 0.077292 second(s), 26 queries .

Powered by Discuz! X3.2

© 2001-2013 Comsenz Inc.

快速回复 返回顶部 返回列表