百度云资源论坛

 找回密码
 立即注册
搜索

[BD-4K] 贝尔法斯特 Belfast.2021.2160p.AMZN.WEB-DL.x265.10bit.HDR10Plus.DDP5.1.Atmos-NOGR ...

[复制链接]
admin 发表于 2021-12-4 17:07:58 | 显示全部楼层 |阅读模式
贝尔法斯特 Belfast.2021.2160p.AMZN.WEB-DL.x265.10bit.HDR10Plus.DDP5.1.Atmos-NOGRP 10.                                                                                                                                                                              -->
帖子完整标题:贝尔法斯特 Belfast.2021.2160p.AMZN.WEB-DL.x265.10bit.HDR10Plus.DDP5.1.Atmos-NOGRP 10.55GB





◎译  名 贝尔法斯特/Belfaste
◎片  名 Belfast
◎年  代 2021
◎产  地 英国
◎类  别 剧情
◎语  言 英语
◎上映日期 2021-09-02(特柳赖德电影节) / 2021-11-12(美国) / 2022-01-21(英国)
◎豆瓣评分 7.4/10 from 217 users
◎ 
◎片  长 97分钟
◎导  演 肯尼思·布拉纳 Kenneth Branagh
◎编  剧 肯尼思·布拉纳 Kenneth Branagh
◎主  演 裘德·希尔 Jude Hill
     凯特瑞娜·巴尔夫 Caitriona Balfe
     詹米·多南 Jamie Dornan
     朱迪·丹奇 Judi Dench
     塞伦·希德 Ciarán Hinds
     迈克尔·马罗尼 Michael Maloney
     罗拉·麦克唐纳 Lara McDonnell
     艾莉·康德伦 Elly Condron
     图尔洛夫·科维里 Turlough Convery
     杰拉德·霍兰 Gerard Horan
     科林·摩根 Colin Morgan
     康纳·麦克尼尔 Conor MacNeill
     约翰·塞森斯 John Sessions
     马克·哈德菲尔德 Mark Hadfield
     克莱尔·阿什顿 Claire Ashton
     萨克·霍兰 Zak Holland
     布里德·布伦南 Brid Brennan
     杰拉德·麦卡锡 Gerard McCarthy

◎标  签 英国 | 2021 | 北爱尔兰 | 历史 | 剧情 | 传记 | 成长 | 爱情

◎简  介

  凯特瑞娜·巴尔夫、朱迪·丹奇、杰米·多南、塞伦·希德和新人裘德·希尔主演,讲述1960年代末动荡时期,一个在贝尔法斯特长大的男孩的故事。
  
  多南和巴尔夫饰演一对富有魅力的工薪阶层夫妇,他们陷入了混乱局势中,丹奇和希德饰演诙谐活泼的祖父母。
Video
ID             : 1
Format           : HEVC
Format/Info          : High Efficiency Video Coding
Format profile         : Main @Main
HDR format           : SMPTE ST 2094 App 4, Version 1, HDR10+ Profile B compatible
Codec ID           : V_MPEGH/ISO/HEVC
Duration           : 1 h 38 min
Bit rate           : 14.6 Mb/s
Width            : 3 840 pixels
Height           : 2 160 pixels
Display aspect ratio       : 16:9
Frame rate mode        : Constant
Frame rate           : 23.976 (24000/1001/189150) FPS
Color space          : YUV
Chroma subsampling       : 4:2:0
Bit depth          : 10 bits
Bits/(Pixel*Frame)       : 0.073
Stream size          : 10.0 GiB (95%)
Default            : Yes
Forced           : No
Color range          : Limited
Color primaries        : BT.2020
Transfer characteristics     : PQ
Matrix coefficients        : BT.2020 non-constant
Mastering display color primaries  : Display P3
Mastering display luminance    : min: 0.0001 cd/m2, max: 1000 cd/m2
Maximum Content Light Level    : 593 cd/m2
Maximum Frame-Average Light Level  : 77 cd/m2

Audio
ID             : 2
Format           : E-AC-3 JOC
Format/Info          : Enhanced AC-3 with Joint Object Coding
Commercial name        : Dolby Digital Plus with Dolby Atmos
Codec ID           : A_EAC3
Duration           : 1 h 38 min
Bit rate mode          : Constant
Bit rate           : 768 kb/s
Channel(s)           : 6 channels
Channel layout         : L R C LFE Ls Rs
Sampling rate          : 48.0 kHz
Frame rate           : 31.250 FPS (1536 SPF)
Compression mode         : Lossy
Stream size          : 539 MiB (5%)
Title            : English
Language           : English
Service kind         : Complete Main
Default            : No
Forced           : No
Complexity index         : 16
Number of dynamic objects      : 15
Bed channel count        : 1 channel
Bed channel configuration      : LFE

Text #1
ID             : 3
Format           : UTF-8
Codec ID           : S_TEXT/UTF8
Codec ID/Info          : UTF-8 Plain Text
Duration           : 1 h 37 min
Bit rate           : 84 b/s
Count of elements        : 1830
Stream size          : 60.2 KiB (0%)
Title            : English
Language           : English
Default            : Yes
Forced           : No

Text #2
ID             : 4
Format           : UTF-8
Codec ID           : S_TEXT/UTF8
Codec ID/Info          : UTF-8 Plain Text
Duration           : 1 h 37 min
Bit rate           : 91 b/s
Count of elements        : 2003
Stream size          : 65.3 KiB (0%)
Title            : English [SDH]
Language           : English
Default            : No
Forced           : No

Text #3
ID             : 5
Format           : UTF-8
Codec ID           : S_TEXT/UTF8
Codec ID/Info          : UTF-8 Plain Text
Duration           : 1 h 36 min
Bit rate           : 66 b/s
Count of elements        : 1261
Stream size          : 47.2 KiB (0%)
Title            : French (Canada)
Language           : French
Default            : No
Forced           : No

Menu
00:00:00.000         : en:Studio Logo
00:01:12.000         : en:Opening Credits
00:03:02.000         : en:Scene 3
00:07:53.000         : en:Scene 4
00:10:05.000         : en:Scene 5
00:11:06.000         : en:Scene 6
00:12:34.000         : en:Scene 7
00:14:37.000         : en:Scene 8
00:16:05.000         : en:Scene 9
00:22:38.000         : en:Scene 10
00:26:04.000         : en:Scene 11
00:28:20.000         : en:Scene 12
00:35:19.000         : en:Scene 13
00:39:47.000         : en:Scene 14
00:46:22.000         : en:Scene 15
00:52:01.000         : en:Scene 16
00:54:33.000         : en:Scene 17
01:00:31.000         : en:Scene 18
01:10:11.000         : en:Scene 19
01:13:32.000         : en:Scene 20
01:19:45.000         : en:Scene 21
01:22:22.000         : en:Scene 22
01:25:07.000         : en:Scene 23
01:33:23.000         : en:End Credits

[/url]

[/url]

[/url]




                                                                  
                                                                                                                                                                                                                                                                                 
273f381f8822d7e77c129b856cf2ddad.torrent (13.86 KB, 下载次数: 0)

回复

使用道具 举报

小黑屋|百度云资源论坛

本网站所有资源来自网络,如无意中侵犯了您的权益,请发邮件至 [email protected],立即清除相关链接

GMT+8, 2024-7-22 07:49 , Processed in 0.074951 second(s), 26 queries .

Powered by Discuz! X3.2

© 2001-2013 Comsenz Inc.

快速回复 返回顶部 返回列表