百度云资源论坛

 找回密码
 立即注册
搜索

[BD-4K] 贝尔法斯特 Belfast.2021.2160p.WEB-DL.DDP5.1.Atmos.DV.MP4.x265-DVSUX 10.45GB

[复制链接]
admin 发表于 2021-12-4 17:07:58 | 显示全部楼层 |阅读模式
贝尔法斯特 Belfast.2021.2160p.WEB-DL.DDP5.1.Atmos.DV.MP4.x265-DVSUX 10.45GB                                                                                                                                                                              -->
帖子完整标题:贝尔法斯特 Belfast.2021.2160p.WEB-DL.DDP5.1.Atmos.DV.MP4.x265-DVSUX 10.45GB





◎译  名 贝尔法斯特/Belfaste
◎片  名 Belfast
◎年  代 2021
◎产  地 英国
◎类  别 剧情
◎语  言 英语
◎上映日期 2021-09-02(特柳赖德电影节) / 2021-11-12(美国) / 2022-01-21(英国)
◎豆瓣评分 7.4/10 from 217 users
◎ 
◎片  长 97分钟
◎导  演 肯尼思·布拉纳 Kenneth Branagh
◎编  剧 肯尼思·布拉纳 Kenneth Branagh
◎主  演 裘德·希尔 Jude Hill
     凯特瑞娜·巴尔夫 Caitriona Balfe
     詹米·多南 Jamie Dornan
     朱迪·丹奇 Judi Dench
     塞伦·希德 Ciarán Hinds
     迈克尔·马罗尼 Michael Maloney
     罗拉·麦克唐纳 Lara McDonnell
     艾莉·康德伦 Elly Condron
     图尔洛夫·科维里 Turlough Convery
     杰拉德·霍兰 Gerard Horan
     科林·摩根 Colin Morgan
     康纳·麦克尼尔 Conor MacNeill
     约翰·塞森斯 John Sessions
     马克·哈德菲尔德 Mark Hadfield
     克莱尔·阿什顿 Claire Ashton
     萨克·霍兰 Zak Holland
     布里德·布伦南 Brid Brennan
     杰拉德·麦卡锡 Gerard McCarthy

◎标  签 英国 | 2021 | 北爱尔兰 | 历史 | 剧情 | 传记 | 成长 | 爱情

◎简  介

  凯特瑞娜·巴尔夫、朱迪·丹奇、杰米·多南、塞伦·希德和新人裘德·希尔主演,讲述1960年代末动荡时期,一个在贝尔法斯特长大的男孩的故事。
  
  多南和巴尔夫饰演一对富有魅力的工薪阶层夫妇,他们陷入了混乱局势中,丹奇和希德饰演诙谐活泼的祖父母。
Video
ID             : 1
Format           : HEVC
Format/Info          : High Efficiency Video Coding
Format profile         : Main @High
HDR format           : Dolby Vision, Version 1.0, dvhe.05.06, BL+RPU
Codec ID           : dvhe
Codec ID/Info          : High Efficiency Video Coding with Dolby Vision
Duration           : 1 h 38 min
Bit rate           : 14.5 Mb/s
Width            : 3 840 pixels
Height           : 2 072 pixels
Original height        : 2 070 pixels
Display aspect ratio       : 1.85:1
Original display aspect ratio    : 1.85:1
Frame rate mode        : Constant
Frame rate           : 23.976 (24000/1001/189150) FPS
Color space          : YUV
Chroma subsampling       : 4:2:0
Bit depth          : 10 bits
Bits/(Pixel*Frame)       : 0.076
Stream size          : 9.92 GiB (95%)
Default            : Yes
Alternate group        : 1
Encoded date         : UTC 2021-12-02 15:25:32
Tagged date          : UTC 2021-12-02 15:26:45
Codec configuration box      : hvcC+dvcC

Audio
ID             : 2
Format           : E-AC-3 JOC
Format/Info          : Enhanced AC-3 with Joint Object Coding
Commercial name        : Dolby Digital Plus with Dolby Atmos
Codec ID           : ec-3
Duration           : 1 h 38 min
Bit rate mode          : Constant
Bit rate           : 768 kb/s
Maximum bit rate         : 811 kb/s
Channel(s)           : 6 channels
Channel layout         : L R C LFE Ls Rs
Sampling rate          : 48.0 kHz
Frame rate           : 31.250 FPS (1536 SPF)
Compression mode         : Lossy
Stream size          : 539 MiB (5%)
Title            : English
Language           : English
Service kind         : Complete Main
Default            : Yes
Alternate group        : 1
Tagged date          : UTC 2021-12-02 15:26:45
Complexity index         : Not present / 16
Number of dynamic objects      : 15
Bed channel count        : 1 channel
Bed channel configuration      : LFE

Text #1
ID             : 3
Format           : Timed Text
Codec ID           : tx3g
Duration           : 1 h 37 min
Bit rate mode          : Variable
Bit rate           : 100 b/s
Stream size          : 72.0 KiB (0%)
Title            : English
Language           : English
Forced           : No
Encoded date         : UTC 2021-12-02 15:26:44
Tagged date          : UTC 2021-12-02 15:26:45

Text #2
ID             : 4
Format           : Timed Text
Codec ID           : tx3g
Duration           : 1 h 37 min
Bit rate mode          : Variable
Bit rate           : 92 b/s
Stream size          : 66.2 KiB (0%)
Title            : English
Language           : English
Forced           : No
Encoded date         : UTC 2021-12-02 15:26:45
Tagged date          : UTC 2021-12-02 15:26:45

Text #3
ID             : 5
Format           : Timed Text
Codec ID           : tx3g
Duration           : 1 h 37 min
Bit rate mode          : Variable
Bit rate           : 72 b/s
Stream size          : 51.6 KiB (0%)
Title            : French
Language           : French
Forced           : No
Encoded date         : UTC 2021-12-02 15:26:45
Tagged date          : UTC 2021-12-02 15:26:45





                                                                  
                                                                                                                                                                                                                                                                                 
bdebc77706e0a5d08dbd8178ec4979ab.torrent (13.7 KB, 下载次数: 0)

回复

使用道具 举报

小黑屋|百度云资源论坛

本网站所有资源来自网络,如无意中侵犯了您的权益,请发邮件至 [email protected],立即清除相关链接

GMT+8, 2024-7-22 07:24 , Processed in 0.158175 second(s), 30 queries .

Powered by Discuz! X3.2

© 2001-2013 Comsenz Inc.

快速回复 返回顶部 返回列表