百度云资源论坛

 找回密码
 立即注册
搜索

[BD-4K] 青春年少/冲动少年 Rushmore.1998.2160p.WEB-DL.DTS-HD.MA.5.1.DV.MKV.x265-TEPES 13. ...

[复制链接]
admin 发表于 2021-12-4 17:07:58 | 显示全部楼层 |阅读模式
青春年少/冲动少年 Rushmore.1998.2160p.WEB-DL.DTS-HD.MA.5.1.DV.MKV.x265-TEPES 13.61GB                                                                                                                                                                              -->
帖子完整标题:青春年少/冲动少年 Rushmore.1998.2160p.WEB-DL.DTS-HD.MA.5.1.DV.MKV.x265-TEPES 13.61GB




◎译  名 青春年少/冲动少年/撬墙角(港)/都是爱情惹的祸(台)
◎片  名 Rushmore
◎年  代 1998
◎产  地 美国
◎类  别 剧情 / 喜剧
◎语  言 英语,西班牙语,拉丁语,法语
◎上映日期 1998-09-17(多伦多电影节) / 1999-02-19(美国)
◎豆瓣评分 8.1/10 from 20457 users
◎ 
◎片  长 93分钟
◎导  演 韦斯·安德森 Wes Anderson
◎编  剧 韦斯·安德森 Wes Anderson / 欧文·威尔逊 Owen Wilson
◎主  演 詹森·舒瓦兹曼 Jason Schwartzman
     比尔·默瑞 Bill Murray
     奥莉维亚·威廉姆斯 Olivia Williams
     西摩·卡塞尔 Seymour Cassel
     布莱恩·考克斯 Brian Cox
     梅森·甘布 Mason Gamble
     萨拉·塔娜卡 Sara Tanaka
     斯特芬·马克尔 Stephen McCole
     康妮·尼尔森 Connie Nielsen
     卢克·威尔逊 Luke Wilson
     迪帕克·帕拉纳 Dipak Pallana
     安德鲁·威尔逊 Andrew Wilson
     华莱士·沃洛达斯基 Wallace Wolodarsky
     布赖恩·滕博姆 Brian Tenenbaum
     埃里克·蔡斯·安德森 Eric Chase Anderson
     库玛·帕拉纳 Kumar Pallana
     斯蒂芬·迪南 Stephen Dignan
     杰森·特罗斯特 Jason Trost
      Donny Caicedo

◎标  签 美国 | 青春 | 韦斯·安德森 | WesAnderson | 喜剧 | 成长 | 1998 | 美国电影

◎简  介

  才华横溢,有一腔理想抱负的热血少年马克斯·费舍尔(詹森·舒瓦兹曼 Jason Schwartzman饰),在休斯敦一间贵族预备学校就读。初入名校的马克斯,却把全部的心思都投注于社团上。凭借着过人的聪明才智,他很快在各种社团里游刃有余。然而过分忽视功课的他,不久就面临着被退学的威胁。因缘际会,他与事业成功的商业大亨赫尔曼·布卢姆(比尔·默瑞 Bill Murray饰)成为了忘年之交,学会了很多人生真理。然而这一切都终结在了才貌双全的女老师露丝玛丽·克罗丝(奥莉维亚·威廉姆斯 Olivia Williams饰)手里。马克斯深陷爱情的世界里,不能自拔。
  
  本片凭借着处处充满针锋相对的机智对白与幽默感,以及新老演员对角色的成功塑造和诠释,荣获1999年第56届金球奖电影类-最佳男配角提名及1999年独立精神奖最佳导演、最佳男配角等多项大奖。

◎获奖情况

  第56届金球奖 ?(1999)
  电影类最佳男配角(提名) 比尔·默瑞
Video
ID             : 1
Format           : HEVC
Format/Info          : High Efficiency Video Coding
Format profile         : Main @High
HDR format           : Dolby Vision, Version 1.0, dvhe.05.06, BL+RPU
Codec ID           : dvhe
Codec ID/Info          : High Efficiency Video Coding with Dolby Vision
Duration           : 1 h 32 min
Bit rate           : 16.5 Mb/s
Width            : 3 840 pixels
Height           : 2 160 pixels
Display aspect ratio       : 16:9
Frame rate mode        : Constant
Frame rate           : 23.976 (24000/1001/189150) FPS
Color space          : YUV
Chroma subsampling       : 4:2:0
Bit depth          : 10 bits
Bits/(Pixel*Frame)       : 0.083
Stream size          : 10.7 GiB (79%)
Default            : Yes
Alternate group        : 1
Color range          : Full
Codec configuration box      : hvcC+dvcC

Audio #1
ID             : 2
Format           : DTS XLL
Format/Info          : Digital Theater Systems
Commercial name        : DTS-HD Master Audio
Codec ID           : mp4a-A9
Duration           : 1 h 32 min
Bit rate mode          : Variable
Bit rate           : 4 283 kb/s
Maximum bit rate         : 5 339 kb/s
Channel(s)           : 6 channels
Channel layout         : C L R Ls Rs LFE
Sampling rate          : 48.0 kHz
Frame rate           : 93.750 FPS (512 SPF)
Bit depth          : 24 bits
Compression mode         : Lossless
Stream size          : 2.78 GiB (20%)
Language           : English
Default            : Yes
Alternate group        : 1

Audio #2
ID             : 4
Format           : AC-3
Format/Info          : Audio Coding 3
Commercial name        : Dolby Digital
Format settings        : Dolby Surround
Codec ID           : ac-3
Duration           : 1 h 32 min
Bit rate mode          : Constant
Bit rate           : 192 kb/s
Maximum bit rate         : 203 kb/s
Channel(s)           : 2 channels
Channel layout         : L R
Sampling rate          : 48.0 kHz
Frame rate           : 31.250 FPS (1536 SPF)
Compression mode         : Lossy
Stream size          : 127 MiB (1%)
Title            : Commentary by director/co-writer/producer Wes Anderson, co-writer/producer Owen Wilson and actor Jason Schwartzman / Commentary by director/co-writer/producer Wes Anderson, co-writer/producer Owen Wilson and actor Jason Schwartzman
Language           : English
Service kind         : Complete Main
Default            : Yes
Alternate group        : 1

Text #1
ID             : 6
Format           : Timed Text
Codec ID           : tx3g
Duration           : 1 h 31 min
Bit rate mode          : Variable
Bit rate           : 68 b/s
Stream size          : 45.4 KiB (0%)
Language           : English
Forced           : No

Text #2
ID             : 7
Format           : Timed Text
Codec ID           : tx3g
Duration           : 1 h 31 min
Bit rate mode          : Variable
Bit rate           : 70 b/s
Stream size          : 46.5 KiB (0%)
Title            : SDH
Language           : English
Forced           : No

Text #3
ID             : 8
Format           : Timed Text
Codec ID           : tx3g
Duration           : 1 h 28 min
Bit rate mode          : Variable
Bit rate           : 53 b/s
Stream size          : 34.2 KiB (0%)
Language           : Danish
Forced           : No

Text #4
ID             : 9
Format           : Timed Text
Codec ID           : tx3g
Duration           : 1 h 28 min
Bit rate mode          : Variable
Bit rate           : 53 b/s
Stream size          : 34.4 KiB (0%)
Language           : German
Forced           : No

Text #5
ID             : 10
Format           : Timed Text
Codec ID           : tx3g
Duration           : 1 h 27 min
Bit rate mode          : Variable
Bit rate           : 61 b/s
Stream size          : 39.6 KiB (0%)
Title            : Latin American
Language           : Spanish
Forced           : No

Text #6
ID             : 11
Format           : Timed Text
Codec ID           : tx3g
Duration           : 1 h 29 min
Bit rate mode          : Variable
Bit rate           : 51 b/s
Stream size          : 33.5 KiB (0%)
Language           : Spanish
Forced           : No

Text #7
ID             : 12
Format           : Timed Text
Codec ID           : tx3g
Duration           : 1 h 27 min
Bit rate mode          : Variable
Bit rate           : 52 b/s
Stream size          : 33.4 KiB (0%)
Language           : Finnish
Forced           : No

Text #8
ID             : 13
Format           : Timed Text
Codec ID           : tx3g
Duration           : 1 h 28 min
Bit rate mode          : Variable
Bit rate           : 83 b/s
Stream size          : 53.5 KiB (0%)
Title            : SDH
Language           : French
Forced           : No

Text #9
ID             : 14
Format           : Timed Text
Codec ID           : tx3g
Duration           : 1 h 27 min
Bit rate mode          : Variable
Bit rate           : 62 b/s
Stream size          : 39.8 KiB (0%)
Language           : Icelandic
Forced           : No

Text #10
ID             : 15
Format           : Timed Text
Codec ID           : tx3g
Duration           : 1 h 29 min
Bit rate mode          : Variable
Bit rate           : 54 b/s
Stream size          : 35.5 KiB (0%)
Language           : Italian
Forced           : No

Text #11
ID             : 16
Format           : Timed Text
Codec ID           : tx3g
Duration           : 1 h 27 min
Bit rate mode          : Variable
Bit rate           : 46 b/s
Stream size          : 29.7 KiB (0%)
Language           : Japanese
Forced           : No

Text #12
ID             : 17
Format           : Timed Text
Codec ID           : tx3g
Duration           : 1 h 27 min
Bit rate mode          : Variable
Bit rate           : 44 b/s
Stream size          : 28.2 KiB (0%)
Language           : Dutch
Forced           : No

Text #13
ID             : 18
Format           : Timed Text
Codec ID           : tx3g
Duration           : 1 h 29 min
Bit rate mode          : Variable
Bit rate           : 51 b/s
Stream size          : 33.1 KiB (0%)
Language           : Norwegian
Forced           : No

Text #14
ID             : 19
Format           : Timed Text
Codec ID           : tx3g
Duration           : 1 h 27 min
Bit rate mode          : Variable
Bit rate           : 50 b/s
Stream size          : 32.2 KiB (0%)
Language           : Polish
Forced           : No

Text #15
ID             : 20
Format           : Timed Text
Codec ID           : tx3g
Duration           : 1 h 29 min
Bit rate mode          : Variable
Bit rate           : 67 b/s
Stream size          : 43.6 KiB (0%)
Title            : Brazilian
Language           : Portuguese
Forced           : No

Text #16
ID             : 21
Format           : Timed Text
Codec ID           : tx3g
Duration           : 1 h 29 min
Bit rate mode          : Variable
Bit rate           : 59 b/s
Stream size          : 38.4 KiB (0%)
Language           : Portuguese
Forced           : No

Text #17
ID             : 22
Format           : Timed Text
Codec ID           : tx3g
Duration           : 1 h 28 min
Bit rate mode          : Variable
Bit rate           : 52 b/s
Stream size          : 33.3 KiB (0%)
Language           : Swedish
Forced           : No

Text #18
ID             : 23
Format           : Timed Text
Codec ID           : tx3g
Duration           : 1 h 27 min
Bit rate mode          : Variable
Bit rate           : 54 b/s
Stream size          : 34.6 KiB (0%)
Title            : Simplified
Language           : Chinese
Forced           : No

Text #19
ID             : 24
Format           : Timed Text
Codec ID           : tx3g
Duration           : 1 h 27 min
Bit rate mode          : Variable
Bit rate           : 54 b/s
Stream size          : 34.7 KiB (0%)
Title            : Traditional
Language           : Chinese
Forced           : No

Menu
00:00:00.000         : 1. Hardest Geometry Problem in the World
00:02:29.608         : 2. Mr. Blume's Chapel Speech
00:04:27.559         : 3. Yearbook Montage
00:05:39.881         : 4. September: Sudden Death Academic Probation
00:08:59.706         : 5. Rehearsal
00:12:58.361         : 6. "Harvard is my safety"
00:15:51.534         : 7. Rushmore Wrestling Squad
00:18:54.342         : 8. Fish Tank Scene
00:24:54.577         : 9. Serpico
00:29:17.589         : 10. Marine Observatory Fund-Raiser
00:33:23.627         : 11. October: Grover Cleveland S.H.S.
00:38:11.331         : 12. Max's Comeback
00:42:18.036         : 13. Little Juan and 40 Ounce
00:48:08.594         : 14. "You are forgiven"
00:52:36.821         : 15. Summit with Dr. Guggenheim
00:56:19.793         : 16. November: Eloise Fischer
00:59:49.670         : 17. December: A Barber's Son
01:04:59.980         : 18. War Does Funny Things to Men
01:09:33.211         : 19. Remote-Controlled Airplane Scene
01:12:18.001         : 20. Perfect Attendance/Punctuality Awards
01:16:21.702         : 21. Ready Demolition, Tucson, AZ
01:19:27.430         : 22. January: Max's Latest Opus
01:25:03.766         : 23. Heaven & Hell Cotillion
01:29:10.262         : 24. End Credits





                                                                  
                                                                                                                                                                                                                                                                                 
35d3647eb569a1bcaa07e4dd0c9f9238.torrent (17.64 KB, 下载次数: 0)

回复

使用道具 举报

小黑屋|百度云资源论坛

本网站所有资源来自网络,如无意中侵犯了您的权益,请发邮件至 [email protected],立即清除相关链接

GMT+8, 2024-7-22 08:43 , Processed in 0.199849 second(s), 28 queries .

Powered by Discuz! X3.2

© 2001-2013 Comsenz Inc.

快速回复 返回顶部 返回列表