百度云资源论坛

 找回密码
 立即注册
搜索

[BD-4K] 毒液2 Venom.Let.There.Be.Carnage.2021.2160p.BCORE.WEB-DL.x265.10bit.HDR.DDP5.1.A ...

[复制链接]
admin 发表于 2021-12-1 19:33:20 | 显示全部楼层 |阅读模式
毒液2 Venom.Let.There.Be.Carnage.2021.2160p.BCORE.WEB-DL.x265.10bit.HDR.DDP5.1.Atm                                                                                                                                                                              -->
帖子完整标题:毒液2 Venom.Let.There.Be.Carnage.2021.2160p.BCORE.WEB-DL.x265.10bit.HDR.DDP5.1.Atmos-BLUTONiUM 54.88GB





◎译  名 毒液2/Venom 2/毒液:屠杀开始/毒液:放纵屠杀/毒液2:屠杀将至/毒液2:屠杀开始/毒魔:血战大屠杀(港)/猛毒2:血蜘蛛(台)
◎片  名 Venom: Let There Be Carnage
◎年  代 2021
◎产  地 美国
◎类  别 动作 / 科幻 / 惊悚
◎语  言 英语
◎上映日期 2021(中国大陆) / 2021-10-01(美国) / 2021-10(英国)
◎豆瓣评分 5.0/10 from 64032 users
◎ 
◎片  长 97分钟
◎导  演 安迪·瑟金斯 Andy Serkis
◎编  剧 凯莉·马塞尔 Kelly Marcel / 汤姆·哈迪 Tom Hardy
◎主  演 汤姆·哈迪 Tom Hardy
     伍迪·哈里森 Woody Harrelson
     米歇尔·威廉姆斯 Michelle Williams
     娜奥米·哈里斯 Naomie Harris
     瑞德·斯科特 Reid Scott
     斯蒂芬·格拉汉姆 Stephen Graham
     汤姆·赫兰德 Tom Holland
     里斯·谢尔史密斯 Reece Shearsmith
     肖恩·德兰尼 Sean Delaney
     佩吉·陆 Peggy Lu
     劳伦斯·斯佩尔曼 Laurence Spellman
     杰克·班戴拉 Jack Bandeira
     斯克鲁比斯·皮普 Scroobius Pip
     阿姆·阿勒卡迪 Amrou Al-Kadhi
     斯图尔特·亚历山大 Stewart Alexander
     克里斯托弗戈德温 Christopher Godwin
     格雷戈·洛基特 Greg Lockett
     桑尼·阿什本·瑟金斯 Sonny Ashbourne Serkis
     雷切尔·汉德肖 Rachel Handshaw
     小田部阿基 Akie Kotabe
     埃里克·西格蒙德森 Eric Sigmundsson
     何塞?帕尔马 Jose Palma
     Rosie Marcel Rosie Marcel
     艾略特·凯博尔 Elliot Cable
     威廉·W·巴伯 William W. Barbour
     埃尔文·费利西达 Erwin Felicilda
     露丝·霍洛克斯 Ruth Horrocks
     约翰·洛巴托 John Lobato
     迪索·拉莫斯 Diezel Ramos
     迈克尔·安德鲁·里德 Michael Andrew Reed
     里克·理查森 Rick Richardson
     安珀·西耶娜 Amber Sienna
     艾蒂安·维克 Etienne Vick
     杰茜·维宁 Jessie Vinning
     中川翔子 Sh?ko Nakagawa

◎标  签 漫威 | 毒液 | 科幻 | 超级英雄 | 美国 | 动作 | 2021 | 漫画改编

◎简  介

  电影讲述了外星共生体“毒液”与宿主埃迪(汤姆·哈迪 饰)这对“最佳拍档”遇上致命反派共生体“卡内奇”(伍迪·哈里森 饰),超级英雄和邪恶反派的宿命之战即将开始。

◎获奖情况

  第7届豆瓣电影年度榜单 ?(2020)
  最值得期待的外语电影(提名)
  
  第6届豆瓣电影年度榜单 ?(2019)
  最值得期待的外语电影(提名)
Video
ID             : 1
Format           : HEVC
Format/Info          : High Efficiency Video Coding
Format profile         : Main @High
HDR format           : SMPTE ST 2086, HDR10 compatible
Codec ID           : V_MPEGH/ISO/HEVC
Duration           : 1 h 37 min
Bit rate           : 80.0 Mb/s
Width            : 3 840 pixels
Height           : 2 160 pixels
Display aspect ratio       : 16:9
Frame rate mode        : Constant
Frame rate           : 23.976 (24000/1001/189150) FPS
Color space          : YUV
Chroma subsampling       : 4:2:0 (Type 2)
Bit depth          : 10 bits
Bits/(Pixel*Frame)       : 0.402
Stream size          : 54.4 GiB (99%)
Language           : English
Default            : Yes
Forced           : No
Color range          : Full
Color primaries        : BT.2020
Transfer characteristics     : PQ
Matrix coefficients        : BT.2020 non-constant
Mastering display color primaries  : BT.2020
Mastering display luminance    : min: 0.0001 cd/m2, max: 1000 cd/m2
Maximum Content Light Level    : 5681 cd/m2
Maximum Frame-Average Light Level  : 522 cd/m2

Audio
ID             : 2
Format           : E-AC-3 JOC
Format/Info          : Enhanced AC-3 with Joint Object Coding
Commercial name        : Dolby Digital Plus with Dolby Atmos
Codec ID           : A_EAC3
Duration           : 1 h 37 min
Bit rate mode          : Constant
Bit rate           : 768 kb/s
Channel(s)           : 6 channels
Channel layout         : L R C LFE Ls Rs
Sampling rate          : 48.0 kHz
Frame rate           : 31.250 FPS (1536 SPF)
Compression mode         : Lossy
Stream size          : 534 MiB (1%)
Language           : English
Service kind         : Complete Main
Default            : Yes
Forced           : No
Complexity index         : 16
Number of dynamic objects      : 15
Bed channel count        : 1 channel
Bed channel configuration      : LFE

Text #1
ID             : 3
Format           : UTF-8
Codec ID           : S_TEXT/UTF8
Codec ID/Info          : UTF-8 Plain Text
Duration           : 1 h 36 min
Bit rate           : 89 b/s
Count of elements        : 1863
Stream size          : 63.5 KiB (0%)
Language           : English
Default            : No
Forced           : No

Text #2
ID             : 4
Format           : UTF-8
Codec ID           : S_TEXT/UTF8
Codec ID/Info          : UTF-8 Plain Text
Duration           : 1 h 36 min
Bit rate           : 99 b/s
Count of elements        : 1863
Stream size          : 70.2 KiB (0%)
Title            : SDH
Language           : English
Default            : No
Forced           : No





                                                                  
                                                                                                                                                                                                                                                                                 
9ec12726e4e1ead6e456b43b34c4356c.torrent (69.29 KB, 下载次数: 0)

回复

使用道具 举报

小黑屋|百度云资源论坛

本网站所有资源来自网络,如无意中侵犯了您的权益,请发邮件至 [email protected],立即清除相关链接

GMT+8, 2024-7-22 08:45 , Processed in 0.090527 second(s), 30 queries .

Powered by Discuz! X3.2

© 2001-2013 Comsenz Inc.

快速回复 返回顶部 返回列表