百度云资源论坛

 找回密码
 立即注册
搜索

魔翡翠 Magic.Crystal.1986.1080p.BluRay.x264-YAMG 12.71GB

[复制链接]
admin 发表于 2021-11-30 17:06:47 | 显示全部楼层 |阅读模式
魔翡翠 Magic.Crystal.1986.1080p.BluRay.x264-YAMG 12.71GB                                                                                                                                                                              -->
帖子完整标题:魔翡翠 Magic.Crystal.1986.1080p.BluRay.x264-YAMG 12.71GB





◎译  名 Jade Crystal/Magic Crystal/越洋追踪
◎片  名 魔翡翠
◎年  代 1986
◎产  地 中国香港
◎类  别 喜剧 / 动作 / 科幻
◎语  言 粤语
◎上映日期 1986-09-17(中国香港)
◎豆瓣评分 6.3/10 from 5628 users
◎ 
◎片  长 95 分钟
◎导  演 王晶 Jing Wong
◎编  剧 王晶 Jing Wong
◎主  演 刘德华 Andy Lau
     陈百祥 Pak-cheung Chan
     张敏 Sharla Cheung
     莫少聪 Siu Chung Mok
     理查德·诺顿 Richard Norton
     成奎安 Fui-On Shing
     石坚 Kien Shih
     沈威 Wai Shum
     林富伟 Fu-wai Lam
     伍国健 Kwok-kin Ng
     罗芙洛 Cynthia Rothrock
     余慕莲 Mo-Lin Yu
     小彬彬 Bin Bin

◎标  签 香港 | 刘德华 | 科幻 | 王晶 | 香港电影 | 动作 | 喜剧 | 1986

◎简  介

  代号猎鹰的安迪(刘德华 饰)是知名冒险专家,连警方也常拜托他出面解决棘手问题。安迪与搭档碰撞球(王晶 饰)总能利用身手与技术完美达成任务。安迪的朋友沈昆因找到魔翡翠遭到苏联克格勃的追杀,遂在希腊向安迪求助。安迪与小外甥彬彬(小彬彬 饰)、碰撞球一行来到雅典,却阴差阳错与沈昆错过,后者将魔翡翠落在小小彬手中。另一方面,为了阻止克格勃抢夺魔翡翠,国际刑警组织的探员一直与精通中国文化和功夫的克格勃首领力战。小小彬无意中发现了魔翡翠具有语言能力和超能力,并与其成为了朋友。在安迪、克格勃和国际刑警三方的争夺中,他们发现魔翡翠原来是属于外星人……
Video
ID             : 1
Format           : AVC
Format/Info          : Advanced Video Codec
Format profile         :
Format settings        : CABAC / 4 Ref Frames
Format settings, CABAC       : Yes
Format settings, Reference frames  : 4 frames
Codec ID           : V_MPEG4/ISO/AVC
Duration           : 1 h 35 min
Bit rate           : 15.1 Mb/s
Width            : 1 920 pixels
Height           : 1 080 pixels
Display aspect ratio       : 16:9
Frame rate mode        : Constant
Frame rate           : 24.000 FPS
Color space          : YUV
Chroma subsampling       : 4:2:0
Bit depth          : 8 bits
Scan type          : Progressive
Bits/(Pixel*Frame)       : 0.302
Stream size          : 10.00 GiB (79%)
Writing library        : x264 core 164 r3065 ae03d92
Encoding settings        : cabac=1 / ref=4 / deblock=1:-3:-3 / analyse=0x3:0x133 / me=umh / subme=10 / psy=1 / psy_rd=1.00:0.00 / mixed_ref=1 / me_range=32 / chroma_me=1 / trellis=2 / 8x8dct=1 / cqm=0 / deadzone=21,11 / fast_pskip=0 / chroma_qp_offset=-2 / threads=24 / lookahead_threads=4 / sliced_threads=0 / nr=0 / decimate=0 / interlaced=0 / bluray_compat=0 / constrained_intra=0 / bframes=8 / b_pyramid=2 / b_adapt=2 / b_bias=0 / direct=3 / weightb=1 / open_gop=0 / weightp=2 / keyint=250 / keyint_min=24 / scenecut=40 / intra_refresh=0 / rc=crf / mbtree=0 / crf=19.0 / qcomp=0.60 / qpmin=0 / qpmax=69 / qpstep=4 / ip_ratio=1.40 / pb_ratio=1.30 / aq=3:0.60
Language           : English
Default            : Yes
Forced           : No
Color range          : Limited
Matrix coefficients        : BT.709

Audio #1
ID             : 2
Format           : MLP FBA
Format/Info          : Meridian Lossless Packing FBA
Commercial name        : Dolby TrueHD
Codec ID           : A_TRUEHD
Duration           : 1 h 35 min
Bit rate mode          : Variable
Bit rate           : 2 953 kb/s
Maximum bit rate         : 3 822 kb/s
Channel(s)           : 6 channels
Channel layout         : L R C LFE Ls Rs
Sampling rate          : 96.0 kHz
Frame rate           : 1 200.000 FPS (80 SPF)
Compression mode         : Lossless
Stream size          : 1.96 GiB (15%)
Title            : Cantonese
Language           : Chinese
Default            : Yes
Forced           : No

Audio #2
ID             : 3
Format           : AC-3
Format/Info          : Audio Coding 3
Commercial name        : Dolby Digital
Format settings        : Dolby Surround EX
Codec ID           : A_AC3
Duration           : 1 h 35 min
Bit rate mode          : Constant
Bit rate           : 640 kb/s
Channel(s)           : 6 channels
Channel layout         : L R C LFE Ls Rs
Sampling rate          : 48.0 kHz
Frame rate           : 31.250 FPS (1536 SPF)
Compression mode         : Lossy
Stream size          : 435 MiB (3%)
Title            : Cantonese
Language           : Chinese
Service kind         : Complete Main
Default            : Yes
Forced           : No

Audio #3
ID             : 4
Format           : AC-3
Format/Info          : Audio Coding 3
Commercial name        : Dolby Digital
Codec ID           : A_AC3
Duration           : 1 h 35 min
Bit rate mode          : Constant
Bit rate           : 384 kb/s
Channel(s)           : 2 channels
Channel layout         : L R
Sampling rate          : 48.0 kHz
Frame rate           : 31.250 FPS (1536 SPF)
Compression mode         : Lossy
Stream size          : 261 MiB (2%)
Title            : Mandarin
Language           : Chinese
Service kind         : Complete Main
Default            : No
Forced           : No

Text #1
ID             : 5
Format           : UTF-8
Codec ID           : S_TEXT/UTF8
Codec ID/Info          : UTF-8 Plain Text
Duration           : 1 h 32 min
Bit rate           : 36 b/s
Count of elements        : 1017
Stream size          : 25.0 KiB (0%)
Title            : English Forced
Language           : English
Default            : Yes
Forced           : Yes

Text #2
ID             : 6
Format           : PGS
Muxing mode          : zlib
Codec ID           : S_HDMV/PGS
Codec ID/Info          : Picture based subtitle format used on BDs/HD-DVDs
Duration           : 1 h 32 min
Bit rate           : 25.0 kb/s
Count of elements        : 1865
Stream size          : 16.6 MiB (0%)
Title            : English Forced PGS
Language           : English
Default            : No
Forced           : No

Text #3
ID             : 7
Format           : PGS
Muxing mode          : zlib
Codec ID           : S_HDMV/PGS
Codec ID/Info          : Picture based subtitle format used on BDs/HD-DVDs
Duration           : 1 h 32 min
Bit rate           : 27.6 kb/s
Count of elements        : 1865
Stream size          : 18.3 MiB (0%)
Title            : Traditional Chinese PGS
Language           : Chinese
Default            : No
Forced           : No

Text #4
ID             : 8
Format           : PGS
Muxing mode          : zlib
Codec ID           : S_HDMV/PGS
Codec ID/Info          : Picture based subtitle format used on BDs/HD-DVDs
Duration           : 1 h 32 min
Bit rate           : 25.7 kb/s
Count of elements        : 1865
Stream size          : 17.0 MiB (0%)
Title            : Simplified Chinese PGS
Language           : Chinese
Default            : No
Forced           : No

Menu
00:00:00.000         : Chapter 01
00:05:50.083         : Chapter 02
00:12:22.417         : Chapter 03
00:21:01.042         : Chapter 04
00:30:21.042         : Chapter 05
00:42:55.333         : Chapter 06
00:51:59.167         : Chapter 07
00:56:15.917         : Chapter 08
01:04:06.708         : Chapter 09
01:13:55.250         : Chapter 10
01:22:41.458         : Chapter 11
01:30:59.083         : Chapter 12






                                                                  
                                                                                                                                                                                                                                                                                 
9f6f936ae4f3565b01bd09c4d8114084.torrent (16.61 KB, 下载次数: 0)

回复

使用道具 举报

小黑屋|百度云资源论坛

本网站所有资源来自网络,如无意中侵犯了您的权益,请发邮件至 [email protected],立即清除相关链接

GMT+8, 2024-7-21 01:36 , Processed in 0.070421 second(s), 26 queries .

Powered by Discuz! X3.2

© 2001-2013 Comsenz Inc.

快速回复 返回顶部 返回列表