百度云资源论坛

 找回密码
 立即注册
搜索

食人族的大屠杀 Holocaust.Cannibal.2014.1080p.BluRay.x264.DD2.0-PTP 5.50GB

[复制链接]
admin 发表于 2021-11-29 16:57:38 | 显示全部楼层 |阅读模式
食人族的大屠杀 Holocaust.Cannibal.2014.1080p.BluRay.x264.DD2.0-PTP 5.50GB                                                                                                                                                                              -->
帖子完整标题:食人族的大屠杀 Holocaust.Cannibal.2014.1080p.BluRay.x264.DD2.0-PTP 5.50GB




◎译  名 食人族的大屠杀
◎片  名 Holocaust Cannibal
◎年  代 2014
◎产  地 美国
◎类  别 动作 / 恐怖 / 奇幻
◎语  言 英语
◎上映日期 
◎豆瓣评分 4.6/10 from 73 users
◎ 

◎标  签 食人族 | 恐怖 | 恐怖片 | 国外电影 | 惊悚 | 动作 | 百度网盘(gushengren) | 非常低预算的电影

◎简  介

  Nearing the end of WW2, a handful of Nazis board a plane bound for Argentina, where they plan to live in hiding. During the flight, lightning hits the molikan.com plane and they parachute onto an island populated by savages. Atrocities await.
Video
ID             : 1
Format           : AVC
Format/Info          : Advanced Video Codec
Format profile         :
Format settings        : CABAC / 4 Ref Frames
Format settings, CABAC       : Yes
Format settings, Reference frames  : 4 frames
Codec ID           : V_MPEG4/ISO/AVC
Duration           : 1 h 36 min
Bit rate           : 8 000 kb/s
Width            : 1 920 pixels
Height           : 1 080 pixels
Display aspect ratio       : 16:9
Frame rate mode        : Constant
Frame rate           : 23.976 (24000/1001/189150) FPS
Color space          : YUV
Chroma subsampling       : 4:2:0
Bit depth          : 8 bits
Scan type          : Progressive
Bits/(Pixel*Frame)       : 0.161
Stream size          : 5.37 GiB (98%)
Writing library        : x264 core 163 r3059 b684ebe0
Encoding settings        : cabac=1 / ref=4 / deblock=1:-3:-3 / analyse=0x3:0x133 / me=umh / subme=10 / psy=1 / psy_rd=1.00:0.00 / mixed_ref=1 / me_range=32 / chroma_me=1 / trellis=2 / 8x8dct=1 / cqm=0 / deadzone=21,11 / fast_pskip=0 / chroma_qp_offset=-2 / threads=16 / lookahead_threads=4 / sliced_threads=0 / nr=0 / decimate=0 / interlaced=0 / bluray_compat=0 / constrained_intra=0 / bframes=16 / b_pyramid=2 / b_adapt=2 / b_bias=0 / direct=3 / weightb=1 / open_gop=0 / weightp=2 / keyint=240 / keyint_min=24 / scenecut=40 / intra_refresh=0 / rc_lookahead=60 / rc=2pass / mbtree=0 / bitrate=8000 / ratetol=1.0 / qcomp=0.60 / qpmin=0 / qpmax=69 / qpstep=4 / cplxblur=20.0 / qblur=0.5 / vbv_maxrate=62500 / vbv_bufsize=78125 / nal_hrd=none / filler=0 / ip_ratio=1.40 / pb_ratio=1.30 / aq=2:1.00
Default            : Yes
Forced           : No
Color range          : Limited
Color primaries        : BT.709
Transfer characteristics     : BT.709
Matrix coefficients        : BT.709

Audio
ID             : 2
Format           : AC-3
Format/Info          : Audio Coding 3
Commercial name        : Dolby Digital
Codec ID           : A_AC3
Duration           : 1 h 36 min
Bit rate mode          : Constant
Bit rate           : 192 kb/s
Channel(s)           : 2 channels
Channel layout         : L R
Sampling rate          : 48.0 kHz
Frame rate           : 31.250 FPS (1536 SPF)
Compression mode         : Lossy
Stream size          : 132 MiB (2%)
Language           : English
Service kind         : Complete Main
Default            : Yes
Forced           : No

Menu
00:00:00.000         : :Chapter 1
00:04:00.282         : :Chapter 2
00:08:11.241         : :Chapter 3
00:16:49.091         : :Chapter 4
00:22:36.063         : :Chapter 5
00:27:02.955         : :Chapter 6
00:28:49.770         : :Chapter 7
00:30:52.601         : :Chapter 8
00:35:03.435         : :Chapter 9
00:37:54.314         : :Chapter 10
00:43:35.988         : :Chapter 11
00:48:56.267         : :Chapter 12
00:54:10.497         : :Chapter 13
00:56:30.137         : :Chapter 14
01:02:01.092         : :Chapter 15
01:06:33.364         : :Chapter 16
01:11:10.975         : :Chapter 17
01:15:11.173         : :Chapter 18
01:18:02.011         : :Chapter 19
01:21:46.318         : :Chapter 20
01:28:53.370         : :Chapter 21

[/url]

[/url]

[/url]




                                                                  
                                                                                                                                                                                                                                                                                 
604bb8806542b61ddead81be7b8ba626.torrent (14.37 KB, 下载次数: 0)

回复

使用道具 举报

小黑屋|百度云资源论坛

本网站所有资源来自网络,如无意中侵犯了您的权益,请发邮件至 [email protected],立即清除相关链接

GMT+8, 2024-7-21 01:25 , Processed in 0.087617 second(s), 26 queries .

Powered by Discuz! X3.2

© 2001-2013 Comsenz Inc.

快速回复 返回顶部 返回列表