百度云资源论坛

 找回密码
 立即注册
搜索

巴黎警察 L.627.1992.1080p.BluRay.x264-EUBDS 13.57GB

[复制链接]
admin 发表于 2021-11-29 16:57:38 | 显示全部楼层 |阅读模式
巴黎警察 L.627.1992.1080p.BluRay.x264-EUBDS 13.57GB                                                                                                                                                                              -->
帖子完整标题:巴黎警察 L.627.1992.1080p.BluRay.x264-EUBDS 13.57GB





◎译  名 巴黎警察
◎片  名 L.627
◎年  代 1992
◎产  地 法国
◎类  别 剧情 / 惊悚 / 犯罪
◎语  言 法语
◎上映日期 1992-09-09
◎豆瓣评分 /10 from 0 users
◎ 
◎片  长 145 分钟
◎导  演 贝特朗·塔维涅 Bertrand Tavernier
◎编  剧 贝特朗·塔维涅 Bertrand Tavernier / 米歇尔·亚历山大 Michel Alexandre
◎主  演 迪迪埃·贝扎斯 Didier Bezace
     让-保罗·科玛特 Jean-Paul Comart
     让-罗热·米罗 Jean-Roger Milo
     让·路易西 Jean Luisi
     弗雷德里克·皮耶罗 Frédéric Pierrot
     米歇尔·亚历山大 Michel Alexandre
     夏洛特·卡迪 Charlotte Kady
     Kamel Cherif Kamel Cherif
     Francis Lax Francis Lax
     Jean Le Mou?l Jean Le Mou?l
     阿兰·萨德 Alain Sarde
     让-路易·伯努瓦 Jean-Louis Beno?t
     菲利普·托雷顿 Philippe Torreton
     弗朗西斯·吉罗 Francis Girod
     尼尔斯·塔维涅 Nils Tavernier
     克洛德·布罗塞 Claude Brosset
     Thierry Desroses Thierry Desroses
     埃里克·萨文 Eric Savin

◎标  签 法国 | 1992 | 贝特朗·塔维涅Bertrand.Tavernier | 犯罪 | BertrandTavernier | Bertrand_Tavernier | 欧洲电影 | 电影院

◎简  介

  关于巴黎吸毒分子的真实写照,以鲜明的现代色彩和反叛精神来刻画吸毒青年虚无的生活态度,社会写实作品。 本片是法国著名导演贝特朗.塔韦尼埃执导的经典作品之一,内容讲述巴黎吸毒份子的真实生活写照,以鲜明的现代色彩和反叛精神来刻画吸毒青年们虚无的生活态度,是一部上乘的社会写实影片。

◎获奖情况

  第49届威尼斯电影节 ?(1992)
  主竞赛单元金狮奖(提名) 贝特朗·塔维涅
Video
ID             : 1
Format           : AVC
Format/Info          : Advanced Video Codec
Format profile         :
Format settings        : CABAC / 4 Ref Frames
Format settings, CABAC       : Yes
Format settings, Reference frames  : 4 frames
Codec ID           : V_MPEG4/ISO/AVC
Duration           : 2 h 26 min
Bit rate           : 12.8 Mb/s
Width            : 1 920 pixels
Height           : 1 036 pixels
Display aspect ratio       : 1.85:1
Frame rate mode        : Constant
Frame rate           : 24.000 FPS
Color space          : YUV
Chroma subsampling       : 4:2:0
Bit depth          : 8 bits
Scan type          : Progressive
Bits/(Pixel*Frame)       : 0.267
Stream size          : 13.0 GiB (96%)
Writing library        : x264 core 163 r3059 b684ebe0
Encoding settings        : cabac=1 / ref=4 / deblock=1:-3:-3 / analyse=0x3:0x133 / me=umh / subme=10 / psy=1 / psy_rd=1.00:0.00 / mixed_ref=1 / me_range=32 / chroma_me=1 / trellis=2 / 8x8dct=1 / cqm=0 / deadzone=21,11 / fast_pskip=0 / chroma_qp_offset=-2 / threads=32 / lookahead_threads=8 / sliced_threads=0 / nr=0 / decimate=0 / interlaced=0 / bluray_compat=0 / constrained_intra=0 / bframes=16 / b_pyramid=2 / b_adapt=2 / b_bias=0 / direct=3 / weightb=1 / open_gop=0 / weightp=2 / keyint=240 / keyint_min=24 / scenecut=40 / intra_refresh=0 / rc_lookahead=60 / rc=crf / mbtree=0 / crf=20.5 / qcomp=0.60 / qpmin=0 / qpmax=69 / qpstep=4 / vbv_maxrate=62500 / vbv_bufsize=78125 / crf_max=0.0 / nal_hrd=none / filler=0 / ip_ratio=1.40 / pb_ratio=1.30 / aq=2:1.00
Default            : Yes
Forced           : No
Color range          : Limited
Color primaries        : BT.709
Transfer characteristics     : BT.709
Matrix coefficients        : BT.709

Audio
ID             : 2
Format           : FLAC
Format/Info          : Free Lossless Audio Codec
Codec ID           : A_FLAC
Duration           : 2 h 26 min
Bit rate mode          : Variable
Bit rate           : 488 kb/s
Channel(s)           : 2 channels
Channel layout         : L R
Sampling rate          : 48.0 kHz
Frame rate           : 11.719 FPS (4096 SPF)
Bit depth          : 16 bits
Compression mode         : Lossless
Stream size          : 510 MiB (4%)
Writing library        : libFLAC 1.2.1 (UTC 2007-09-17)
Language           : French
Default            : Yes
Forced           : No

Text #1
ID             : 3
Format           : UTF-8
Codec ID           : S_TEXT/UTF8
Codec ID/Info          : UTF-8 Plain Text
Duration           : 2 h 21 min
Bit rate           : 50 b/s
Count of elements        : 2057
Stream size          : 52.7 KiB (0%)
Language           : English
Default            : Yes
Forced           : Yes

Text #2
ID             : 4
Format           : PGS
Muxing mode          : zlib
Codec ID           : S_HDMV/PGS
Codec ID/Info          : Picture based subtitle format used on BDs/HD-DVDs
Duration           : 2 h 23 min
Bit rate           : 44.9 kb/s
Count of elements        : 4502
Stream size          : 46.1 MiB (0%)
Language           : French
Default            : No
Forced           : No

Text #3
ID             : 5
Format           : PGS
Muxing mode          : zlib
Codec ID           : S_HDMV/PGS
Codec ID/Info          : Picture based subtitle format used on BDs/HD-DVDs
Duration           : 2 h 20 min
Bit rate           : 47.8 kb/s
Count of elements        : 4340
Stream size          : 48.2 MiB (0%)
Language           : German
Default            : No
Forced           : No

Menu
00:00:00.000         : :Chapter 1
00:12:22.750         : :Chapter 2
00:24:51.167         : :Chapter 3
00:37:04.250         : :Chapter 4
00:50:38.250         : :Chapter 5
01:02:47.792         : :Chapter 6
01:16:22.208         : :Chapter 7
01:29:21.750         : :Chapter 8
01:40:13.708         : :Chapter 9
01:52:30.167         : :Chapter 10
02:06:58.875         : :Chapter 11
02:23:40.042         : :Chapter 12

[/url]

[/url]

[/url]




                                                                  
                                                                                                                                                                                                                                                                                 
bb40ad290ee480c9bcff4f8912b058ee.torrent (17.56 KB, 下载次数: 0)

回复

使用道具 举报

小黑屋|百度云资源论坛

本网站所有资源来自网络,如无意中侵犯了您的权益,请发邮件至 [email protected],立即清除相关链接

GMT+8, 2024-7-21 01:00 , Processed in 0.105905 second(s), 30 queries .

Powered by Discuz! X3.2

© 2001-2013 Comsenz Inc.

快速回复 返回顶部 返回列表