百度云资源论坛

 找回密码
 立即注册
搜索

稚子骄阳 It.All.Starts.Today.1999.FRENCH.1080p.BluRay.x264.FLAC2.0-PTer 14.18GB ...

[复制链接]
admin 发表于 2021-11-29 16:57:38 | 显示全部楼层 |阅读模式
稚子骄阳 It.All.Starts.Today.1999.FRENCH.1080p.BluRay.x264.FLAC2.0-PTer 14.18GB                                                                                                                                                                              -->
帖子完整标题:稚子骄阳 It.All.Starts.Today.1999.FRENCH.1080p.BluRay.x264.FLAC2.0-PTer 14.18GB





◎译  名 稚子骄阳/It all starts today
◎片  名 ?a commence aujourd'hui
◎年  代 1999
◎产  地 法国
◎类  别 剧情
◎语  言 法语
◎上映日期 1999-03-12
◎豆瓣评分 7.6/10 from 142 users
◎ 
◎片  长 117 分钟
◎导  演 贝特朗·塔维涅 Bertrand Tavernier
◎编  剧 贝特朗·塔维涅 Bertrand Tavernier
◎主  演 菲利普·托雷顿 Philippe Torreton
     艾玛纽尔·贝克特 Emmanuelle Bercot
     弗朗索瓦丝·贝特 Fran?oise Bette
     迪迪埃·贝扎斯 Didier Bezace
     克里斯汀·奇蒂 Christine Citti

◎标  签 法国 | 法国电影 | 儿童 | 贝特朗·塔维涅 | 社会 | 教育 | Bertrand_Tavernier | BertrandTavernier

◎简  介

  法国北部的一间学校校长虽然面临着家庭的贫瘠和社会的冷漠,仍然向他的小学生们讲授着生活中的快乐和希望.

◎获奖情况

  第49届柏林国际电影节 ?(1999)
  金熊奖(提名) 贝特朗·塔维涅
  特别提及 贝特朗·塔维涅
  费比西奖(国际影评人联盟奖)竞赛单元最佳影片 贝特朗·塔维涅
Video
ID             : 1
Format           : AVC
Format/Info          : Advanced Video Codec
Format profile         :
Format settings        : CABAC / 5 Ref Frames
Format settings, CABAC       : Yes
Format settings, Reference frames  : 5 frames
Codec ID           : V_MPEG4/ISO/AVC
Duration           : 1 h 58 min
Bit rate           : 16.6 Mb/s
Width            : 1 920 pixels
Height           : 816 pixels
Display aspect ratio       : 2.35:1
Frame rate mode        : Constant
Frame rate           : 24.000 FPS
Color space          : YUV
Chroma subsampling       : 4:2:0
Bit depth          : 8 bits
Scan type          : Progressive
Bits/(Pixel*Frame)       : 0.442
Stream size          : 13.7 GiB (97%)
Writing library        : x264 core 157 r2932 303c484
Encoding settings        : cabac=1 / ref=5 / deblock=1:-3:-3 / analyse=0x3:0x133 / me=umh / subme=11 / psy=1 / psy_rd=1.02:0.00 / mixed_ref=1 / me_range=32 / chroma_me=1 / trellis=2 / 8x8dct=1 / cqm=0 / deadzone=21,11 / fast_pskip=0 / chroma_qp_offset=-2 / threads=12 / lookahead_threads=3 / sliced_threads=0 / nr=0 / decimate=0 / interlaced=0 / bluray_compat=0 / constrained_intra=0 / bframes=16 / b_pyramid=2 / b_adapt=2 / b_bias=0 / direct=3 / weightb=1 / open_gop=0 / weightp=2 / keyint=250 / keyint_min=24 / scenecut=40 / intra_refresh=0 / rc_lookahead=250 / rc=crf / mbtree=0 / crf=19.4 / qcomp=0.60 / qpmin=0 / qpmax=69 / qpstep=4 / vbv_maxrate=62500 / vbv_bufsize=78125 / crf_max=0.0 / nal_hrd=none / filler=0 / ip_ratio=1.30 / pb_ratio=1.20 / aq=3:0.80
Language           : English
Default            : Yes
Forced           : No
Color range          : Limited
Color primaries        : BT.709
Matrix coefficients        : BT.709

Audio
ID             : 2
Format           : FLAC
Format/Info          : Free Lossless Audio Codec
Codec ID           : A_FLAC
Duration           : 1 h 58 min
Bit rate mode          : Variable
Bit rate           : 547 kb/s
Channel(s)           : 2 channels
Channel layout         : L R
Sampling rate          : 48.0 kHz
Frame rate           : 10.417 FPS (4608 SPF)
Bit depth          : 16 bits
Compression mode         : Lossless
Stream size          : 463 MiB (3%)
Writing library        : Lavf58.29.100
Language           : French
Default            : Yes
Forced           : No

Text #1
ID             : 3
Format           : UTF-8
Codec ID           : S_TEXT/UTF8
Codec ID/Info          : UTF-8 Plain Text
Duration           : 1 h 57 min
Bit rate           : 49 b/s
Count of elements        : 1363
Stream size          : 43.0 KiB (0%)
Title            : English SRT [English]
Language           : English
Default            : No
Forced           : No

Text #2
ID             : 4
Format           : UTF-8
Codec ID           : S_TEXT/UTF8
Codec ID/Info          : UTF-8 Plain Text
Duration           : 1 h 55 min
Bit rate           : 45 b/s
Count of elements        : 1444
Stream size          : 38.6 KiB (0%)
Title            : Chinese SRT [Simplified Chinese]
Language           : Chinese
Default            : No
Forced           : No

Text #3
ID             : 5
Format           : UTF-8
Codec ID           : S_TEXT/UTF8
Codec ID/Info          : UTF-8 Plain Text
Duration           : 1 h 57 min
Bit rate           : 60 b/s
Count of elements        : 1587
Stream size          : 52.1 KiB (0%)
Title            : French SRT [French]
Language           : French
Default            : No
Forced           : No

Text #4
ID             : 6
Format           : UTF-8
Codec ID           : S_TEXT/UTF8
Codec ID/Info          : UTF-8 Plain Text
Duration           : 1 h 57 min
Bit rate           : 58 b/s
Count of elements        : 1554
Stream size          : 50.3 KiB (0%)
Title            : German SRT [German]
Language           : German
Default            : No
Forced           : No

Menu
00:00:00.000         : :Chapter 01
00:11:12.750         : :Chapter 02
00:22:18.458         : :Chapter 03
00:33:20.208         : :Chapter 04
00:44:05.625         : :Chapter 05
00:55:17.083         : :Chapter 06
01:06:26.750         : :Chapter 07
01:17:05.208         : :Chapter 08
01:27:24.792         : :Chapter 09
01:39:05.125         : :Chapter 10
01:46:50.083         : :Chapter 11
01:55:32.625         : :Chapter 12
01:58:17.083         : :Chapter 13

[/url]

[/url]




                                                                  
                                                                                                                                                                                                                                                                                 
4f40253a3904d12abb502ed450e024e5.torrent (18.37 KB, 下载次数: 0)

回复

使用道具 举报

小黑屋|百度云资源论坛

本网站所有资源来自网络,如无意中侵犯了您的权益,请发邮件至 [email protected],立即清除相关链接

GMT+8, 2024-7-21 00:39 , Processed in 0.072847 second(s), 26 queries .

Powered by Discuz! X3.2

© 2001-2013 Comsenz Inc.

快速回复 返回顶部 返回列表