百度云资源论坛

 找回密码
 立即注册
搜索

衣柜里的男人/男人放轻松 Maybe.Maybe.Not.1994.GERMAN.1080p.BluRay.x264.DTS-PTer 1 ...

[复制链接]
admin 发表于 2021-11-29 16:57:38 | 显示全部楼层 |阅读模式
衣柜里的男人/男人放轻松 Maybe.Maybe.Not.1994.GERMAN.1080p.BluRay.x264.DTS-PTer 12.10GB                                                                                                                                                                              -->
帖子完整标题:衣柜里的男人/男人放轻松 Maybe.Maybe.Not.1994.GERMAN.1080p.BluRay.x264.DTS-PTer 12.10GB





◎译  名 衣柜里的男人/男人放轻松
◎片  名 Der bewegte Mann
◎年  代 1994
◎产  地 德国
◎类  别 喜剧 / 同性
◎语  言 德语
◎上映日期 1994-10-06
◎豆瓣评分 7.0/10 from 1271 users
◎ 
◎片  长 93 分钟
◎导  演 宋克·沃特曼 S?nke Wortmann
◎编  剧 拉尔夫·柯尼希 Ralf K?nig / 宋克·沃特曼 S?nke Wortmann
◎主  演 伦纳德·兰辛 Leonard Lansink
     Horst Scheel Horst Scheel
     Mike Reichenbach Mike Reichenbach
     马克斯·拉伯 Max Raabe
     Nico van der Knaap Nico van der Knaap
     Christof Wackernagel Christof Wackernagel
     Willi Herren Willi Herren
     Ludger Burmann Ludger Burmann
     凯·维辛格 Kai Wiesinger
     Monty Arnold Monty Arnold
     约阿希姆·克罗尔 Joachim Król
     拉尔夫·柯尼希 Ralf K?nig
     海因里希·沙夫迈斯 Heinrich Schafmeister
     蒂尔·施威格 Til Schweiger
     卡蒂娅·里曼 Katja Riemann
     马蒂娜·格德克 Martina Gedeck
     马丁·阿姆克尼赫特 Martin Armknecht
     Heinz Baumeister Heinz Baumeister
     鲁弗斯·贝克 Rufus Beck
     阿敏·罗德 Armin Rohde

◎标  签 德国 | 同志 | 喜剧 | 德国电影 | GAY | 同性 | 1994 | 电影

◎简  介

  艾瑟(蒂尔·施威格 Til Schweiger 饰)长相英俊个性讨喜,唯一的缺点就是太花心。有一天,艾瑟正在自己工作的餐厅同相识没多久的女客人偷换,正巧被同事兼同居女友多罗(卡嘉·瑞曼 Katja Riemann 饰)逮了个正着,这下可好了,不仅女友红颜大怒,艾瑟也失去了唯一的住所。
  
  无奈之中,艾瑟的朋友将艾瑟带到了诺伯(约阿希姆·科尔 Joachim Król 饰)家,诺伯是一名同性恋者,资质平平的他在圈内并不吃香。对于艾瑟的到来,诺伯显得十分热情,他不仅在生活上对艾瑟无微不至,更是常常温暖艾瑟孤独的内心。随着时间的推移,竟然有火花在两人之间闪烁,就在两人欲干柴烈火之时,多罗又一次的“碰巧”出现在了他们的面前。

◎获奖情况

  第8届东京国际电影节 ?(1995)
  主竞赛单元最佳影片(提名) 宋克·沃特曼
Video
ID             : 1
Format           : AVC
Format/Info          : Advanced Video Codec
Format profile         :
Format settings        : CABAC / 4 Ref Frames
Format settings, CABAC       : Yes
Format settings, Reference frames  : 4 frames
Codec ID           : V_MPEG4/ISO/AVC
Duration           : 1 h 33 min
Bit rate           : 16.5 Mb/s
Width            : 1 920 pixels
Height           : 1 038 pixels
Display aspect ratio       : 1.85:1
Frame rate mode        : Constant
Frame rate           : 24.000 FPS
Color space          : YUV
Chroma subsampling       : 4:2:0
Bit depth          : 8 bits
Scan type          : Progressive
Bits/(Pixel*Frame)       : 0.344
Stream size          : 10.8 GiB (89%)
Writing library        : x264 core 161 r3027 4121277
Encoding settings        : cabac=1 / ref=4 / deblock=1:-3:-3 / analyse=0x3:0x133 / me=umh / subme=11 / psy=1 / psy_rd=1.02:0.00 / mixed_ref=1 / me_range=32 / chroma_me=1 / trellis=2 / 8x8dct=1 / cqm=0 / deadzone=21,11 / fast_pskip=0 / chroma_qp_offset=-2 / threads=18 / lookahead_threads=4 / sliced_threads=0 / nr=0 / decimate=0 / interlaced=0 / bluray_compat=0 / constrained_intra=0 / bframes=16 / b_pyramid=2 / b_adapt=2 / b_bias=0 / direct=3 / weightb=1 / open_gop=0 / weightp=2 / keyint=250 / keyint_min=24 / scenecut=40 / intra_refresh=0 / rc_lookahead=250 / rc=crf / mbtree=0 / crf=19.0 / qcomp=0.60 / qpmin=0 / qpmax=69 / qpstep=4 / vbv_maxrate=62500 / vbv_bufsize=78125 / crf_max=0.0 / nal_hrd=none / filler=0 / ip_ratio=1.30 / pb_ratio=1.20 / aq=3:0.80
Language           : German
Default            : Yes
Forced           : No
Color range          : Limited
Color primaries        : BT.709
Matrix coefficients        : BT.709

Audio #1
ID             : 2
Format           : DTS
Format/Info          : Digital Theater Systems
Codec ID           : A_DTS
Duration           : 1 h 33 min
Bit rate mode          : Constant
Bit rate           : 1 509 kb/s
Channel(s)           : 6 channels
Channel layout         : C L R Ls Rs LFE
Sampling rate          : 48.0 kHz
Frame rate           : 93.750 FPS (512 SPF)
Bit depth          : 24 bits
Compression mode         : Lossy
Stream size          : 1 014 MiB (8%)
Language           : German
Default            : Yes
Forced           : No

Audio #2
ID             : 3
Format           : AC-3
Format/Info          : Audio Coding 3
Commercial name        : Dolby Digital
Codec ID           : A_AC3
Duration           : 1 h 33 min
Bit rate mode          : Constant
Bit rate           : 448 kb/s
Channel(s)           : 6 channels
Channel layout         : L R C LFE Ls Rs
Sampling rate          : 48.0 kHz
Frame rate           : 31.250 FPS (1536 SPF)
Compression mode         : Lossy
Stream size          : 301 MiB (2%)
Language           : English
Service kind         : Complete Main
Default            : No
Forced           : No

Text #1
ID             : 4
Format           : ASS
Codec ID           : S_TEXT/ASS
Codec ID/Info          : Advanced Sub Station Alpha
Duration           : 1 h 29 min
Bit rate           : 255 b/s
Count of elements        : 1338
Compression mode         : Lossless
Stream size          : 168 KiB (0%)
Title            : Simplified Chinese&English
Language           : Chinese
Default            : No
Forced           : No

Text #2
ID             : 5
Format           : UTF-8
Codec ID           : S_TEXT/UTF8
Codec ID/Info          : UTF-8 Plain Text
Duration           : 1 h 29 min
Bit rate           : 143 b/s
Count of elements        : 1336
Stream size          : 94.6 KiB (0%)
Title            : Simplified Chinese&English
Language           : Chinese
Default            : No
Forced           : No

Text #3
ID             : 6
Format           : UTF-8
Codec ID           : S_TEXT/UTF8
Codec ID/Info          : UTF-8 Plain Text
Duration           : 1 h 29 min
Bit rate           : 74 b/s
Count of elements        : 1336
Stream size          : 49.0 KiB (0%)
Language           : English
Default            : No
Forced           : No

Text #4
ID             : 7
Format           : UTF-8
Codec ID           : S_TEXT/UTF8
Codec ID/Info          : UTF-8 Plain Text
Duration           : 1 h 31 min
Bit rate           : 80 b/s
Count of elements        : 1190
Stream size          : 54.1 KiB (0%)
Language           : German
Default            : No
Forced           : No

Text #5
ID             : 8
Format           : PGS
Muxing mode          : zlib
Codec ID           : S_HDMV/PGS
Codec ID/Info          : Picture based subtitle format used on BDs/HD-DVDs
Duration           : 1 h 31 min
Bit rate           : 51.7 kb/s
Count of elements        : 2380
Stream size          : 33.8 MiB (0%)
Language           : German
Default            : No
Forced           : No

Menu
00:00:00.000         : de:"Ja und Nein"
00:02:41.333         : de:Ertappt
00:05:01.917         : de:Waltrauds Besuch
00:09:04.708         : de:M?nnergruppe
00:16:58.500         : deie Party
00:24:08.333         : de:Bei Norbert
00:31:02.750         : de:Schwanger?
00:34:00.000         : de:Schewardnadse
00:39:44.542         : de:Zeitungsklau
00:45:58.000         : de:Bewegte M?nner
00:52:24.625         : de:Horst, Metzger
00:55:06.333         : deie Hochzeit
00:59:42.167         : de:Tofu-Wurst
01:05:07.417         : de:Elke Schmitt
01:09:49.250         : de:Asyl für Axel
01:14:32.958         : de:Tod in Venedig
01:18:43.000         : de:Bull Power
01:23:47.292         : de:Krei?saal
01:26:05.667         : deas Baby
01:30:46.542         : de:Abspann

[/url]

[/url]

[/url]




                                                                  
                                                                                                                                                                                                                                                                                 
a267fd8145cff4d6e093a70c8424b0d7.torrent (15.79 KB, 下载次数: 0)

回复

使用道具 举报

小黑屋|百度云资源论坛

本网站所有资源来自网络,如无意中侵犯了您的权益,请发邮件至 [email protected],立即清除相关链接

GMT+8, 2024-7-21 00:36 , Processed in 0.099757 second(s), 26 queries .

Powered by Discuz! X3.2

© 2001-2013 Comsenz Inc.

快速回复 返回顶部 返回列表