百度云资源论坛

 找回密码
 立即注册
搜索

思绪膨胀 Mind.Blown.2016.1080p.BluRay.x264.DD5.1-HANDJOB 7.29GB

[复制链接]
admin 发表于 2021-11-29 16:57:38 | 显示全部楼层 |阅读模式
思绪膨胀 Mind.Blown.2016.1080p.BluRay.x264.DD5.1-HANDJOB 7.29GB                                                                                                                                                                              -->
帖子完整标题:思绪膨胀 Mind.Blown.2016.1080p.BluRay.x264.DD5.1-HANDJOB 7.29GB





◎译  名 思绪膨胀
◎片  名 Mind Blown
◎年  代 2016
◎产  地 美国
◎类  别 动作 / 科幻 / 惊悚
◎语  言 英语
◎上映日期 2016-12-01(美国电视播出)
◎豆瓣评分 /10 from 0 users
◎ 
◎片  长 88分钟
◎导  演 克里斯蒂安·塞斯玛 Christian Sesma
◎编  剧 克里斯蒂安·塞斯玛 Christian Sesma
◎主  演 鲁克·高斯 Luke Goss
     乔恩马克 Jon Mack

◎标  签 科幻 | 犯罪 | 灾难 | 悬疑 | 奇幻 | 动作 | ,阴谋

◎简  介

  以提利昂·克莱顿(Steve Hanks 饰)为首的美国军方人员进行着一项秘密计划,名为“思绪膨胀”计划,这项计划掌握着各种操控天气的秘诀。一个小组希望利用这个计划改变世界,例如为干旱地区带来降雨。但意想不到的效果产生了,这个机器正悄然毁灭着美国的城市...
Video
ID             : 1
Format           : AVC
Format/Info          : Advanced Video Codec
Format profile         :
Format settings        : CABAC / 4 Ref Frames
Format settings, CABAC       : Yes
Format settings, Reference frames  : 4 frames
Codec ID           : V_MPEG4/ISO/AVC
Duration           : 1 h 28 min
Bit rate           : 11.2 Mb/s
Width            : 1 920 pixels
Height           : 1 080 pixels
Display aspect ratio       : 16:9
Frame rate mode        : Constant
Frame rate           : 23.976 (24000/1001/189150) FPS
Color space          : YUV
Chroma subsampling       : 4:2:0
Bit depth          : 8 bits
Scan type          : Progressive
Bits/(Pixel*Frame)       : 0.225
Stream size          : 6.89 GiB (95%)
Writing library        : x264 core 163 r3059 b684ebe0
Encoding settings        : cabac=1 / ref=4 / deblock=1:-3:-3 / analyse=0x3:0x133 / me=umh / subme=10 / psy=1 / psy_rd=1.00:0.00 / mixed_ref=1 / me_range=32 / chroma_me=1 / trellis=2 / 8x8dct=1 / cqm=0 / deadzone=21,11 / fast_pskip=0 / chroma_qp_offset=-2 / threads=34 / lookahead_threads=8 / sliced_threads=0 / nr=0 / decimate=0 / interlaced=0 / bluray_compat=0 / constrained_intra=0 / bframes=16 / b_pyramid=2 / b_adapt=2 / b_bias=0 / direct=3 / weightb=1 / open_gop=0 / weightp=2 / keyint=240 / keyint_min=24 / scenecut=40 / intra_refresh=0 / rc_lookahead=60 / rc=crf / mbtree=0 / crf=18.2 / qcomp=0.60 / qpmin=0 / qpmax=69 / qpstep=4 / vbv_maxrate=62500 / vbv_bufsize=78125 / crf_max=0.0 / nal_hrd=none / filler=0 / ip_ratio=1.40 / pb_ratio=1.30 / aq=2:1.00
Default            : Yes
Forced           : No
Color range          : Limited
Color primaries        : BT.709
Transfer characteristics     : BT.709
Matrix coefficients        : BT.709

Audio
ID             : 2
Format           : AC-3
Format/Info          : Audio Coding 3
Commercial name        : Dolby Digital
Codec ID           : A_AC3
Duration           : 1 h 28 min
Bit rate mode          : Constant
Bit rate           : 640 kb/s
Channel(s)           : 6 channels
Channel layout         : L R C LFE Ls Rs
Sampling rate          : 48.0 kHz
Frame rate           : 31.250 FPS (1536 SPF)
Compression mode         : Lossy
Stream size          : 404 MiB (5%)
Language           : English
Service kind         : Complete Main
Default            : Yes
Forced           : No

Text #1
ID             : 3
Format           : PGS
Muxing mode          : zlib
Codec ID           : S_HDMV/PGS
Codec ID/Info          : Picture based subtitle format used on BDs/HD-DVDs
Duration           : 1 h 21 min
Bit rate           : 22.7 kb/s
Count of elements        : 1459
Stream size          : 13.3 MiB (0%)
Language           : German
Default            : No
Forced           : No

Text #2
ID             : 4
Format           : PGS
Muxing mode          : zlib
Codec ID           : S_HDMV/PGS
Codec ID/Info          : Picture based subtitle format used on BDs/HD-DVDs
Duration           : 1 h 5 min
Bit rate           : 392 b/s
Count of elements        : 27
Stream size          : 189 KiB (0%)
Language           : German
Default            : No
Forced           : No

Menu
00:00:00.000         : :Chapter 1
00:01:11.321         : :Chapter 2
00:04:38.653         : :Chapter 3
00:11:20.513         : :Chapter 4
00:21:48.599         : :Chapter 5
00:33:34.596         : :Chapter 6
00:39:37.834         : :Chapter 7
00:45:18.883         : :Chapter 8
00:57:06.965         : :Chapter 9
01:06:52.926         : :Chapter 10
01:16:55.402         : :Chapter 11
01:24:05.040         : :Chapter 12

[/url]

[/url]

[/url]




                                                                  
                                                                                                                                                                                                                                                                                 
da48d0029f8a5b75de4d16b1f3c44c10.torrent (18.85 KB, 下载次数: 0)

回复

使用道具 举报

小黑屋|百度云资源论坛

本网站所有资源来自网络,如无意中侵犯了您的权益,请发邮件至 [email protected],立即清除相关链接

GMT+8, 2024-7-21 01:53 , Processed in 0.136462 second(s), 26 queries .

Powered by Discuz! X3.2

© 2001-2013 Comsenz Inc.

快速回复 返回顶部 返回列表