百度云资源论坛

 找回密码
 立即注册
搜索

悲伤电影 Sad.Movie.2005.KOREAN.1080p.BluRay.x264.DD5.1-HANDJOB 7.28GB

[复制链接]
admin 发表于 2021-11-29 16:57:38 | 显示全部楼层 |阅读模式
悲伤电影 Sad.Movie.2005.KOREAN.1080p.BluRay.x264.DD5.1-HANDJOB 7.28GB                                                                                                                                                                              -->
帖子完整标题:悲伤电影 Sad.Movie.2005.KOREAN.1080p.BluRay.x264.DD5.1-HANDJOB 7.28GB





◎译  名 悲伤电影/Sad Movie/恋人絮语(台)/真的爱你(港)
◎片  名 ????
◎年  代 2005
◎产  地 韩国
◎类  别 剧情 / 喜剧 / 爱情
◎语  言 韩国手语,韩语
◎上映日期 2005-10-21(韩国)
◎豆瓣评分 7.7/10 from 61474 users
◎ 
◎片  长 108 分钟
◎导  演 权宗官 Jong-kwan Kwon
◎编  剧 权宗官 Jong-kwan Kwon
◎主  演 郑雨盛 Woo-sung Jung
     车太贤 Tae-hyun Cha
     李己雨 Ki-woo Lee
     林秀晶 Su-jeong Lim
     金石源 Suk-won Kim
     申敏儿 Sin Min-ah
     孙泰英 Tae-yeong Son
     廉晶雅 Jung-ah Yum
     吕珍九 Jin-goo Yeo
     崔钟律 Jong-ryeol Choi
     宋英泰 Yeong-tak Song
     李钟郁 Jung-yul Lee
     安吉江 Kil-Kang Ahn

◎标  签 韩国 | 悲伤电影 | 韩国电影 | 爱情 | 林秀晶 | 车太贤 | 郑宇成 | 悲伤

◎简  介

  本片在平行推进中描写了四段悲伤的恋情:拳击陪练河锡(车太贤 饰)厌倦了做人肉沙袋的饭碗。一次偶然的机会,他找到一份新的职业——分手代理。这份工作让他见识了太多的悲欢离合,并坚定了对女友淑贤(孙泰英 饰)的爱,但是偏偏事与愿违;身为职业女性的珠蓉(廉晶雅 饰)因为工作压力大,忽略了对儿子辉灿的呵护。当她因胃病住院后,母子在交流中都感受到了亲情的温暖;手语主播秀珍(林秀晶 饰)和消防员镇宇(郑宇成 饰)是一对恋人。不过,她并不喜欢他的危险工作。当两人终于决定结婚时,却遭遇了灭顶之灾……哑女秀恩(申敏儿 饰)与画家尚宇(李基宇 饰)在公园活动中不期而遇,他们因为一幅画结缘。由于她带着娃娃的面具,因此他看不到她的脸。但两人却在猜测中堕入了无声的爱河……
Video
ID             : 1
Format           : AVC
Format/Info          : Advanced Video Codec
Format profile         :
Format settings        : CABAC / 5 Ref Frames
Format settings, CABAC       : Yes
Format settings, Reference frames  : 5 frames
Codec ID           : V_MPEG4/ISO/AVC
Duration           : 1 h 49 min
Bit rate           : 8 762 kb/s
Width            : 1 912 pixels
Height           : 802 pixels
Display aspect ratio       : 2.40:1
Frame rate mode        : Constant
Frame rate           : 23.976 (24000/1001/189150) FPS
Color space          : YUV
Chroma subsampling       : 4:2:0
Bit depth          : 8 bits
Scan type          : Progressive
Bits/(Pixel*Frame)       : 0.238
Stream size          : 6.68 GiB (92%)
Writing library        : x264 core 157 r2935 545de2f
Encoding settings        : cabac=1 / ref=5 / deblock=1:-3:-3 / analyse=0x3:0x133 / me=umh / subme=11 / psy=1 / psy_rd=1.00:0.00 / mixed_ref=1 / me_range=32 / chroma_me=1 / trellis=2 / 8x8dct=1 / cqm=0 / deadzone=21,11 / fast_pskip=0 / chroma_qp_offset=-2 / threads=18 / lookahead_threads=4 / sliced_threads=0 / nr=0 / decimate=0 / interlaced=0 / bluray_compat=0 / constrained_intra=0 / bframes=16 / b_pyramid=2 / b_adapt=2 / b_bias=0 / direct=3 / weightb=1 / open_gop=0 / weightp=2 / keyint=240 / keyint_min=24 / scenecut=40 / intra_refresh=0 / rc_lookahead=60 / rc=crf / mbtree=0 / crf=19.0 / qcomp=0.60 / qpmin=0 / qpmax=69 / qpstep=4 / vbv_maxrate=62500 / vbv_bufsize=78125 / crf_max=0.0 / nal_hrd=none / filler=0 / ip_ratio=1.40 / pb_ratio=1.30 / aq=2:1.00
Default            : Yes
Forced           : No
Color range          : Limited
Color primaries        : BT.709
Transfer characteristics     : BT.709
Matrix coefficients        : BT.709

Audio
ID             : 2
Format           : AC-3
Format/Info          : Audio Coding 3
Commercial name        : Dolby Digital
Codec ID           : A_AC3
Duration           : 1 h 49 min
Bit rate mode          : Constant
Bit rate           : 640 kb/s
Channel(s)           : 6 channels
Channel layout         : L R C LFE Ls Rs
Sampling rate          : 48.0 kHz
Frame rate           : 31.250 FPS (1536 SPF)
Compression mode         : Lossy
Stream size          : 499 MiB (7%)
Language           : Korean
Service kind         : Complete Main
Default            : Yes
Forced           : No

Text #1
ID             : 3
Format           : UTF-8
Codec ID           : S_TEXT/UTF8
Codec ID/Info          : UTF-8 Plain Text
Duration           : 1 h 44 min
Bit rate           : 32 b/s
Count of elements        : 766
Stream size          : 25.2 KiB (0%)
Language           : English
Default            : Yes
Forced           : No

Text #2
ID             : 4
Format           : PGS
Muxing mode          : zlib
Codec ID           : S_HDMV/PGS
Codec ID/Info          : Picture based subtitle format used on BDs/HD-DVDs
Duration           : 1 h 47 min
Bit rate           : 109 kb/s
Count of elements        : 5124
Stream size          : 83.7 MiB (1%)
Language           : Japanese
Default            : No
Forced           : No

Text #3
ID             : 5
Format           : PGS
Muxing mode          : zlib
Codec ID           : S_HDMV/PGS
Codec ID/Info          : Picture based subtitle format used on BDs/HD-DVDs
Duration           : 1 h 47 min
Bit rate           : 112 kb/s
Count of elements        : 5124
Stream size          : 86.3 MiB (1%)
Title            : Handwritten Font
Language           : Japanese
Default            : No
Forced           : No

Text #4
ID             : 6
Format           : PGS
Muxing mode          : zlib
Codec ID           : S_HDMV/PGS
Codec ID/Info          : Picture based subtitle format used on BDs/HD-DVDs
Duration           : 1 h 47 min
Bit rate           : 139 kb/s
Count of elements        : 5124
Stream size          : 107 MiB (1%)
Title            : Large Font
Language           : Japanese
Default            : No
Forced           : No

Menu
00:00:00.000         : :オープニング
00:05:43.343         : :ママへの不満
00:08:22.127         : :恋の予感
00:10:03.603         : :誕生日
00:16:50.384         : :事故
00:17:59.704         : :チャンスをくれ
00:20:09.834         : :待ちぼうけ
00:28:14.985         : :ママとの約束
00:30:50.223         : :別れさせ屋 開業
00:35:13.111         : :君の顔が描きたい
00:37:30.039         : :ママの日記
00:39:37.041         : :お姉さんには内緒
00:41:52.635         : :別れさせ屋大繁盛
00:45:29.977         : :早く元気になってね
00:50:55.594         : :もう耐えられない
00:55:50.180         : :僕が代わりに病気に...
00:59:41.453         : :"愛してる"って言えるじゃない
01:02:35.794         : :ママは大丈夫よ
01:09:18.905         : :仲直り
01:17:06.747         : :素顔の白雪姫
01:24:22.641         : :辛すぎる依頼
01:30:49.110         : :死なないでママ
01:39:42.810         : :永遠に愛してる
01:46:13.784         : :工ンド?クレジット

[/url]

[/url]

[/url]




                                                                  
                                                                                                                                                                                                                                                                                 
6cfcb453c2b9c5a0853b78964a578e52.torrent (18.85 KB, 下载次数: 0)

回复

使用道具 举报

小黑屋|百度云资源论坛

本网站所有资源来自网络,如无意中侵犯了您的权益,请发邮件至 [email protected],立即清除相关链接

GMT+8, 2024-7-21 00:56 , Processed in 0.085693 second(s), 26 queries .

Powered by Discuz! X3.2

© 2001-2013 Comsenz Inc.

快速回复 返回顶部 返回列表