百度云资源论坛

 找回密码
 立即注册
搜索

狙击手 Sniper.2020.CHINESE.1080p.BluRay.x264.DTS-EDPH 7.74GB

[复制链接]
admin 发表于 2021-11-29 16:57:38 | 显示全部楼层 |阅读模式
狙击手 Sniper.2020.CHINESE.1080p.BluRay.x264.DTS-EDPH 7.74GB                                                                                                                                                                              -->
帖子完整标题:狙击手 Sniper.2020.CHINESE.1080p.BluRay.x264.DTS-EDPH 7.74GB





◎片  名 狙击手
◎年  代 2020
◎产  地 中国大陆
◎类  别 动作 / 战争
◎语  言 英语,汉语普通话
◎上映日期 2020-03-05(中国大陆)
◎豆瓣评分 4.8/10 from 1616 users
◎ 
◎片  长 85分钟
◎导  演 黄照盛
◎编  剧 黄锟 Huang Kun
◎主  演 任天野 Tianye Ren
     是之 Zhi Shi
     梁家峻

◎标  签 战争 | 狙击 | 军旅 | 动作 | 中国 | 任天野 | 一星给老高 | 狙击手

◎简  介

  讲述了在险峻的战争局势中,顶级雇佣兵刀口舔血,险中作战,从恐怖分子、军火公司等多方势力中成功夺回放射性元素,最终瓦解阴谋、守护城市的惊险历程。影片在波折跌宕的剧情中,为观众传达人道主义精神以及捍卫和平的主旋律价值观。
Video
ID             : 1
Format           : AVC
Format/Info          : Advanced Video Codec
Format profile         :
Format settings        : CABAC / 5 Ref Frames
Format settings, CABAC       : Yes
Format settings, Reference frames  : 5 frames
Codec ID           : V_MPEG4/ISO/AVC
Duration           : 1 h 21 min
Bit rate           : 12.0 Mb/s
Width            : 1 920 pixels
Height           : 816 pixels
Display aspect ratio       : 2.35:1
Frame rate mode        : Constant
Frame rate           : 23.976 (24000/1001/189150) FPS
Color space          : YUV
Chroma subsampling       : 4:2:0
Bit depth          : 8 bits
Scan type          : Progressive
Bits/(Pixel*Frame)       : 0.321
Stream size          : 6.87 GiB (89%)
Writing library        : x264 core 161 r3027 4121277
Encoding settings        : cabac=1 / ref=5 / deblock=1:-3:-3 / analyse=0x3:0x133 / me=umh / subme=11 / psy=1 / psy_rd=1.02:0.00 / mixed_ref=1 / me_range=32 / chroma_me=1 / trellis=2 / 8x8dct=1 / cqm=0 / deadzone=21,11 / fast_pskip=0 / chroma_qp_offset=-2 / threads=12 / lookahead_threads=3 / sliced_threads=0 / nr=0 / decimate=0 / interlaced=0 / bluray_compat=0 / constrained_intra=0 / bframes=16 / b_pyramid=2 / b_adapt=2 / b_bias=0 / direct=3 / weightb=1 / open_gop=0 / weightp=2 / keyint=250 / keyint_min=23 / scenecut=40 / intra_refresh=0 / rc_lookahead=250 / rc=crf / mbtree=0 / crf=20.1 / qcomp=0.65 / qpmin=0 / qpmax=69 / qpstep=4 / vbv_maxrate=62500 / vbv_bufsize=78125 / crf_max=0.0 / nal_hrd=none / filler=0 / ip_ratio=1.30 / pb_ratio=1.20 / aq=3:0.80
Default            : No
Forced           : No
Color range          : Limited
Color primaries        : BT.709
Matrix coefficients        : BT.709

Audio
ID             : 2
Format           : DTS
Format/Info          : Digital Theater Systems
Codec ID           : A_DTS
Duration           : 1 h 21 min
Bit rate mode          : Constant
Bit rate           : 1 509 kb/s
Channel(s)           : 6 channels
Channel layout         : C L R Ls Rs LFE
Sampling rate          : 48.0 kHz
Frame rate           : 93.750 FPS (512 SPF)
Bit depth          : 24 bits
Compression mode         : Lossy
Stream size          : 882 MiB (11%)
Language           : Chinese
Default            : No
Forced           : No

Text
ID             : 3
Format           : UTF-8
Codec ID           : S_TEXT/UTF8
Codec ID/Info          : UTF-8 Plain Text
Duration           : 1 h 18 min
Bit rate           : 32 b/s
Count of elements        : 952
Stream size          : 18.4 KiB (0%)
Language           : English
Default            : Yes
Forced           : No

Menu
00:00:00.000         : en:Chapter 01
00:09:31.153         : en:Chapter 02
00:15:17.833         : en:Chapter 03
00:21:44.761         : en:Chapter 04
00:28:53.231         : en:Chapter 05
00:36:00.908         : en:Chapter 06
00:42:07.316         : en:Chapter 07
00:49:22.084         : en:Chapter 08
00:56:59.958         : en:Chapter 09
01:06:04.627         : en:Chapter 10
01:12:10.200         : en:Chapter 11
01:19:13.749         : en:Chapter 12

[/url]

[/url]

[/url]




                                                                  
                                                                                                                                                                                                                                                                                 
02c2731145c082c90def3c750b9e56d0.torrent (19.96 KB, 下载次数: 0)

回复

使用道具 举报

小黑屋|百度云资源论坛

本网站所有资源来自网络,如无意中侵犯了您的权益,请发邮件至 [email protected],立即清除相关链接

GMT+8, 2024-7-21 00:05 , Processed in 0.135330 second(s), 30 queries .

Powered by Discuz! X3.2

© 2001-2013 Comsenz Inc.

快速回复 返回顶部 返回列表