百度云资源论坛

 找回密码
 立即注册
搜索

唱诗班少年/有牌烂仔 The.Choirboys.1977.1080p.BluRay.x264.FLAC.2.0-HANDJOB 9.67GB ...

[复制链接]
admin 发表于 2021-11-29 16:57:38 | 显示全部楼层 |阅读模式
唱诗班少年/有牌烂仔 The.Choirboys.1977.1080p.BluRay.x264.FLAC.2.0-HANDJOB 9.67GB                                                                                                                                                                              -->
帖子完整标题:唱诗班少年/有牌烂仔 The.Choirboys.1977.1080p.BluRay.x264.FLAC.2.0-HANDJOB 9.67GB





◎译  名 唱诗班少年/有牌烂仔
◎片  名 The Choirboys
◎年  代 1977
◎产  地 美国
◎类  别 剧情 / 犯罪
◎语  言 英语
◎上映日期 1977-12-23
◎豆瓣评分 /10 from 0 users
◎ 
◎片  长 119 分钟
◎导  演 罗伯特·奥尔德里奇 Robert Aldrich
◎编  剧 约瑟夫·瓦姆博 Joseph Wambaugh / 克里斯托弗·克诺夫 Christopher Knopf
◎主  演 查尔斯·德恩 Charles Durning
     小路易斯·格赛特 Louis Gossett Jr.
     佩里·金 Perry King
     Dick Ziker Dick Ziker
     Susan Batson Susan Batson
     James M. Halty James M. Halty
     苏珊娜·泽诺 Susanne Zenor

◎标  签 美国 | Robert·Aldrich | 1977 | 美国电影 | WEB-DL | D罗伯特·奥尔德里奇 | 1970s | 被忽视的片子

◎简  介

  暂无相关剧情介绍
Video
ID             : 1
Format           : AVC
Format/Info          : Advanced Video Codec
Format profile         :
Format settings        : CABAC / 4 Ref Frames
Format settings, CABAC       : Yes
Format settings, Reference frames  : 4 frames
Codec ID           : V_MPEG4/ISO/AVC
Duration           : 2 h 0 min
Bit rate           : 11.1 Mb/s
Width            : 1 920 pixels
Height           : 1 036 pixels
Display aspect ratio       : 1.85:1
Frame rate mode        : Constant
Frame rate           : 23.976 (24000/1001/189150) FPS
Color space          : YUV
Chroma subsampling       : 4:2:0
Bit depth          : 8 bits
Scan type          : Progressive
Bits/(Pixel*Frame)       : 0.233
Stream size          : 9.33 GiB (97%)
Writing library        : x264 core 163 r3060 5db6aa6
Encoding settings        : cabac=1 / ref=4 / deblock=1:-3:-3 / analyse=0x3:0x133 / me=umh / subme=10 / psy=1 / psy_rd=1.00:0.00 / mixed_ref=1 / me_range=32 / chroma_me=1 / trellis=2 / 8x8dct=1 / cqm=0 / deadzone=21,11 / fast_pskip=0 / chroma_qp_offset=-2 / threads=6 / lookahead_threads=1 / sliced_threads=0 / nr=0 / decimate=0 / interlaced=0 / bluray_compat=0 / constrained_intra=0 / bframes=16 / b_pyramid=2 / b_adapt=2 / b_bias=0 / direct=3 / weightb=1 / open_gop=0 / weightp=2 / keyint=240 / keyint_min=24 / scenecut=40 / intra_refresh=0 / rc_lookahead=60 / rc=crf / mbtree=0 / crf=17.5 / qcomp=0.60 / qpmin=0 / qpmax=69 / qpstep=4 / vbv_maxrate=62500 / vbv_bufsize=78125 / crf_max=0.0 / nal_hrd=none / filler=0 / ip_ratio=1.40 / pb_ratio=1.30 / aq=2:1.00
Default            : Yes
Forced           : No
Color range          : Limited
Color primaries        : BT.709
Transfer characteristics     : BT.709
Matrix coefficients        : BT.709

Audio #1
ID             : 2
Format           : FLAC
Format/Info          : Free Lossless Audio Codec
Codec ID           : A_FLAC
Duration           : 2 h 0 min
Bit rate mode          : Variable
Bit rate           : 323 kb/s
Channel(s)           : 2 channels
Channel layout         : L R
Sampling rate          : 48.0 kHz
Frame rate           : 11.719 FPS (4096 SPF)
Bit depth          : 16 bits
Compression mode         : Lossless
Stream size          : 277 MiB (3%)
Writing library        : libFLAC 1.2.1 (UTC 2007-09-17)
Language           : English
Default            : Yes
Forced           : No

Audio #2
ID             : 3
Format           : AAC LC
Format/Info          : Advanced Audio Codec Low Complexity
Codec ID           : A_AAC-2
Duration           : 2 h 0 min
Bit rate           : 76.5 kb/s
Channel(s)           : 2 channels
Channel layout         : L R
Sampling rate          : 48.0 kHz
Frame rate           : 46.875 FPS (1024 SPF)
Compression mode         : Lossy
Stream size          : 65.8 MiB (1%)
Title            : Commentary with Film Historians Howard S. Berger and Nathaniel Thompson
Language           : English
Default            : No
Forced           : No

Text
ID             : 4
Format           : UTF-8
Codec ID           : S_TEXT/UTF8
Codec ID/Info          : UTF-8 Plain Text
Duration           : 1 h 56 min
Bit rate           : 61 b/s
Count of elements        : 1376
Stream size          : 52.7 KiB (0%)
Language           : English
Default            : No
Forced           : No

Menu
00:00:00.000         : :Chapter 1
00:09:54.677         : :Chapter 2
00:18:09.422         : :Chapter 3
00:29:55.669         : :Chapter 4
00:43:09.962         : :Chapter 5
01:00:31.962         : :Chapter 6
01:17:36.026         : :Chapter 7
01:44:16.542         : :Chapter 8

[/url]

[/url]

[/url]




                                                                  
                                                                                                                                                                                                                                                                                 
0ab7b31d37becf1fa15dac3e38cd0f4e.torrent (24.8 KB, 下载次数: 0)

回复

使用道具 举报

小黑屋|百度云资源论坛

本网站所有资源来自网络,如无意中侵犯了您的权益,请发邮件至 [email protected],立即清除相关链接

GMT+8, 2024-7-21 00:33 , Processed in 0.174894 second(s), 30 queries .

Powered by Discuz! X3.2

© 2001-2013 Comsenz Inc.

快速回复 返回顶部 返回列表