百度云资源论坛

 找回密码
 立即注册
搜索

天降横财 The.Great.Rupert.1950.1080p.BluRay.x264.FLAC.2.0-HANDJOB 7.27GB

[复制链接]
admin 发表于 2021-11-29 16:57:38 | 显示全部楼层 |阅读模式
天降横财 The.Great.Rupert.1950.1080p.BluRay.x264.FLAC.2.0-HANDJOB 7.27GB                                                                                                                                                                              -->
帖子完整标题:天降横财 The.Great.Rupert.1950.1080p.BluRay.x264.FLAC.2.0-HANDJOB 7.27GB





◎译  名 天降横财
◎片  名 The Great Rupert
◎年  代 1950
◎产  地 美国
◎类  别 喜剧 / 家庭
◎语  言 英语
◎上映日期 1950-04-13
◎豆瓣评分 /10 from 0 users
◎ 
◎片  长 87 分钟
◎导  演 欧文·皮切尔 Irving Pichel
◎编  剧 哈里·克兰 Harry Crane / 詹姆斯·奥哈伦 James O'Hanlon / 拉斯洛·沃德瑙伊 László Vadnay
◎主  演 休·桑德斯 Hugh Sanders
     奎妮·史密斯 Queenie Smith
     肯纳G.肯普 Kenner G. Kemp
     法兰克·马洛 Frank Marlowe
     拉尔夫·蒙哥马利 Ralph Montgomery
     Torben Meyer Torben Meyer
     弗兰克奥思 Frank Orth
     泰瑞·摩尔 Terry Moore
     Harry Strang Harry Strang
     哈罗德·古德温 Harold Goodwin
     萨拉·黑登 Sara Haden
     欧文·皮切尔 Irving Pichel
     奇克·坎德勒 Chick Chandler
     汤姆·德雷克 Tom Drake
     唐·贝多 Don Beddoe
     康迪·康迪多 Candy Candido
     弗兰克·卡迪 Frank Cady
     Clancy Cooper Clancy Cooper
     Jimmy Conlin Jimmy Conlin
     Lester Dorr Lester Dorr
     吉米·杜兰特 Jimmy Durante

◎标  签 喜剧 | 美国电影 | 美国 | 欧文·皮切尔 | 欧文.皮切尔

◎简  介

  A Christmas Wish is a heartwarming holiday classic about a New York family (led by Durante) who is down on their luck at Christmas time. Shortly before Christmas, they move into a ground floor apartment where Rupert the squirrel lives in the attic rafters. Just when it seems that the holiday will come and go without so much as a Christmas tree, Rupert acts as the family's guardian angel, not only saving Christmas, but changing their lives forever. The film is enlivened with the warmth and sweetness of an unforgettable love story between Terry Moore (of Mighty Joe Young) and Tom Drake (of Meet Me in St. Louis). Rupert the Squirrel (created using George Pal's Academy Award winning animation technique) will charm young and old alike. Jimmy Durante shines when he sings Jingle Bells and other well-loved Christmas carols in the evocative voice that made him one of America's recording legends. Written by Anonymous
Video
ID             : 1
Format           : AVC
Format/Info          : Advanced Video Codec
Format profile         :
Format settings        : CABAC / 5 Ref Frames
Format settings, CABAC       : Yes
Format settings, Reference frames  : 5 frames
Codec ID           : V_MPEG4/ISO/AVC
Duration           : 1 h 28 min
Bit rate           : 11.6 Mb/s
Width            : 1 412 pixels
Height           : 1 080 pixels
Display aspect ratio       : 4:3
Frame rate mode        : Constant
Frame rate           : 23.976 (24000/1001/189150) FPS
Color space          : YUV
Chroma subsampling       : 4:2:0
Bit depth          : 8 bits
Scan type          : Progressive
Bits/(Pixel*Frame)       : 0.317
Stream size          : 7.13 GiB (98%)
Writing library        : x264 core 157 r2935 545de2f
Encoding settings        : cabac=1 / ref=5 / deblock=1:-3:-3 / analyse=0x3:0x133 / me=umh / subme=10 / psy=1 / psy_rd=1.00:0.00 / mixed_ref=1 / me_range=32 / chroma_me=1 / trellis=2 / 8x8dct=1 / cqm=0 / deadzone=21,11 / fast_pskip=0 / chroma_qp_offset=-2 / threads=24 / lookahead_threads=6 / sliced_threads=0 / nr=0 / decimate=0 / interlaced=0 / bluray_compat=0 / constrained_intra=0 / bframes=16 / b_pyramid=2 / b_adapt=2 / b_bias=0 / direct=3 / weightb=1 / open_gop=0 / weightp=2 / keyint=240 / keyint_min=24 / scenecut=40 / intra_refresh=0 / rc_lookahead=60 / rc=crf / mbtree=0 / crf=18.0 / qcomp=0.60 / qpmin=0 / qpmax=69 / qpstep=4 / vbv_maxrate=62500 / vbv_bufsize=78125 / crf_max=0.0 / nal_hrd=none / filler=0 / ip_ratio=1.40 / pb_ratio=1.30 / aq=2:1.00
Default            : Yes
Forced           : No
Color range          : Limited
Color primaries        : BT.709
Transfer characteristics     : BT.709
Matrix coefficients        : BT.709

Audio
ID             : 2
Format           : FLAC
Format/Info          : Free Lossless Audio Codec
Codec ID           : A_FLAC
Duration           : 1 h 28 min
Bit rate mode          : Variable
Bit rate           : 223 kb/s
Channel(s)           : 2 channels
Sampling rate          : 48.0 kHz
Frame rate           : 11.719 FPS (4096 SPF)
Bit depth          : 16 bits
Compression mode         : Lossless
Stream size          : 140 MiB (2%)
Writing library        : libFLAC 1.2.1 (UTC 2007-09-17)
Language           : English
Default            : Yes
Forced           : No

Menu
00:00:00.000         : :Chapter 1
00:11:06.124         : :Chapter 2
00:20:24.849         : :Chapter 3
00:22:23.884         : :Chapter 4
00:26:55.280         : :Chapter 5
00:31:46.405         : :Chapter 6
00:38:02.155         : :Chapter 7
00:46:37.336         : :Chapter 8
00:51:30.462         : :Chapter 9
00:59:54.091         : :Chapter 10
01:05:07.737         : :Chapter 11
01:12:43.568         : :Chapter 12
01:19:05.491         : :Chapter 13
01:22:50.716         : :Chapter 14
01:27:51.892         : :Chapter 15

[/url]

[/url]

[/url]




                                                                  
                                                                                                                                                                                                                                                                                 
89c59095355f80d23618f873f2606ea4.torrent (18.83 KB, 下载次数: 0)

回复

使用道具 举报

小黑屋|百度云资源论坛

本网站所有资源来自网络,如无意中侵犯了您的权益,请发邮件至 [email protected],立即清除相关链接

GMT+8, 2024-7-21 01:51 , Processed in 0.080394 second(s), 26 queries .

Powered by Discuz! X3.2

© 2001-2013 Comsenz Inc.

快速回复 返回顶部 返回列表