百度云资源论坛

 找回密码
 立即注册
搜索

十萬夥急 Time.Is.Money.2015.1080p.BluRay.x264-NOELLE 9.27GB

[复制链接]
admin 发表于 2021-11-29 16:57:38 | 显示全部楼层 |阅读模式
十萬夥急 Time.Is.Money.2015.1080p.BluRay.x264-NOELLE 9.27GB                                                                                                                                                                              -->
帖子完整标题:十萬夥急 Time.Is.Money.2015.1080p.BluRay.x264-NOELLE 9.27GB





◎译  名 十万伙急/No Money No Talk/Time ls Money
◎片  名 十萬夥急
◎年  代 2015
◎产  地 中国台湾
◎类  别 喜剧 / 悬疑
◎语  言 汉语普通话
◎上映日期 2015-01-16(中国台湾) / 2015-04-17(中国大陆)
◎豆瓣评分 3.6/10 from 922 users
◎ 
◎片  长 86分钟(中国大陆)
◎导  演 康晋荣 Chin-Jung Kang
◎编  剧 康晋荣 Chin-Jung Kang / 陆欣芷 Hsin-Chih Lu
◎主  演 康晋荣 Chin-Jung Kang
     李国煌 Mark Lee
     吴孟达 Man Tat Ng
     王彩桦 Lotus Wang
     王棠云 Sarah Wang
     吴宗宪 Jacky Wu
     欧弟 O Ti
     素珠 Siu Chu
     唐从圣 Tsung Sheng Tang
     庹宗康 Tsuong Kang To
     黄嘉千 Phoebe Huang
     孟庆而 Cheer

◎标  签 台湾 | 喜剧 | 2015 | 吴孟达 | 台湾电影 | 康康 | 台灣 | 电影

◎简  介

  陈默(康康 饰)原是富二代,却因好赌不但气死老爸更败光家财,成了“负二代”,身无分文,只有父亲留给他一张画家楚中天(李国煌 饰)的画作,但这幅画只值十万元,根本不够还清赌债。他和地下钱庄的老板突然看到电视上报导画家张老千过世而让画作价值爆涨的新闻,因此他被逼飞往新加坡杀害楚中天,好让画作增值还债,他所有的杀人资本就是十万元。
  
  楚中天与朱月坡(吴孟达 饰)也曾因张老千的画结下深仇,朱月坡更因此入狱坐牢,逃狱成功的他誓言要追杀楚中天。楚中天在腹背受敌的状况下,只好接受画廊经纪人建议,飞往马来西亚,寻求美女经纪人胡晶(王予柔 饰)的帮助,避难兼卖画,4人终于在马来西亚相会,展开一场尔虞我诈、真假难辨的追杀之旅……
Video
ID             : 1
Format           : AVC
Format/Info          : Advanced Video Codec
Format profile         :
Format settings        : CABAC / 5 Ref Frames
Format settings, CABAC       : Yes
Format settings, Reference frames  : 5 frames
Codec ID           : V_MPEG4/ISO/AVC
Duration           : 1 h 31 min
Bit rate           : 11.9 Mb/s
Width            : 1 920 pixels
Height           : 800 pixels
Display aspect ratio       : 2.40:1
Frame rate mode        : Constant
Frame rate           : 24.000 FPS
Color space          : YUV
Chroma subsampling       : 4:2:0
Bit depth          : 8 bits
Scan type          : Progressive
Bits/(Pixel*Frame)       : 0.324
Stream size          : 7.59 GiB (82%)
Writing library        : x264 core 163 r3059 b684ebe0
Encoding settings        : cabac=1 / ref=5 / deblock=1:-3:-3 / analyse=0x3:0x133 / me=umh / subme=10 / psy=1 / psy_rd=1.00:0.00 / mixed_ref=1 / me_range=32 / chroma_me=1 / trellis=2 / 8x8dct=1 / cqm=0 / deadzone=21,11 / fast_pskip=0 / chroma_qp_offset=-2 / threads=25 / lookahead_threads=6 / sliced_threads=0 / nr=0 / decimate=0 / interlaced=0 / bluray_compat=0 / constrained_intra=0 / bframes=16 / b_pyramid=2 / b_adapt=2 / b_bias=0 / direct=3 / weightb=1 / open_gop=0 / weightp=2 / keyint=240 / keyint_min=24 / scenecut=40 / intra_refresh=0 / rc_lookahead=60 / rc=crf / mbtree=0 / crf=17.0 / qcomp=0.60 / qpmin=0 / qpmax=69 / qpstep=4 / vbv_maxrate=62500 / vbv_bufsize=78125 / crf_max=0.0 / nal_hrd=none / filler=0 / ip_ratio=1.40 / pb_ratio=1.30 / aq=2:1.00
Default            : Yes
Forced           : No
Color range          : Limited
Color primaries        : BT.709
Transfer characteristics     : BT.709
Matrix coefficients        : BT.709

Audio
ID             : 2
Format           : DTS XLL
Format/Info          : Digital Theater Systems
Commercial name        : DTS-HD Master Audio
Codec ID           : A_DTS
Duration           : 1 h 31 min
Bit rate mode          : Variable
Bit rate           : 2 605 kb/s
Channel(s)           : 6 channels
Channel layout         : C L R Ls Rs LFE
Sampling rate          : 48.0 kHz
Frame rate           : 93.750 FPS (512 SPF)
Bit depth          : 24 bits
Compression mode         : Lossless
Stream size          : 1.66 GiB (18%)
Language           : Chinese
Default            : Yes
Forced           : No

Text #1
ID             : 3
Format           : UTF-8
Codec ID           : S_TEXT/UTF8
Codec ID/Info          : UTF-8 Plain Text
Duration           : 1 h 26 min
Bit rate           : 50 b/s
Count of elements        : 1259
Stream size          : 32.0 KiB (0%)
Language           : English
Default            : Yes
Forced           : Yes

Text #2
ID             : 4
Format           : PGS
Muxing mode          : zlib
Codec ID           : S_HDMV/PGS
Codec ID/Info          : Picture based subtitle format used on BDs/HD-DVDs
Duration           : 1 h 28 min
Bit rate           : 37.2 kb/s
Count of elements        : 2618
Stream size          : 23.6 MiB (0%)
Title            : Chinese Traditional
Language           : Chinese
Default            : No
Forced           : No

Menu
00:00:00.000         : :Chapter 1
00:07:46.167         : :Chapter 2
00:13:05.583         : :Chapter 3
00:24:13.000         : :Chapter 4
00:36:29.000         : :Chapter 5
00:47:17.167         : :Chapter 6
00:57:57.125         : :Chapter 7
01:07:48.750         : :Chapter 8
01:17:44.125         : :Chapter 9
01:24:23.167         : :Chapter 10

[/url]

[/url]

[/url]




                                                                  
                                                                                                                                                                                                                                                                                 
70fa0854a2c12a4cf5dc3ce9de6a0df7.torrent (23.86 KB, 下载次数: 0)

回复

使用道具 举报

小黑屋|百度云资源论坛

本网站所有资源来自网络,如无意中侵犯了您的权益,请发邮件至 [email protected],立即清除相关链接

GMT+8, 2024-7-21 00:54 , Processed in 0.095862 second(s), 26 queries .

Powered by Discuz! X3.2

© 2001-2013 Comsenz Inc.

快速回复 返回顶部 返回列表