百度云资源论坛

 找回密码
 立即注册
搜索

[BD-4K] 亚当斯一家/爱登士家庭 The.Addams.Family.1991.EXTENDED.2160p.BluRay.x265.10bit.SD ...

[复制链接]
admin 发表于 2021-11-28 03:47:04 | 显示全部楼层 |阅读模式
亚当斯一家/爱登士家庭 The.Addams.Family.1991.EXTENDED.2160p.BluRay.x265.10bit.SDR.DTS-HD.M                                                                                                                                                                              -->
帖子完整标题:亚当斯一家/爱登士家庭 The.Addams.Family.1991.EXTENDED.2160p.BluRay.x265.10bit.SDR.DTS-HD.MA.5.1-SWTYBLZ 33.71GB





◎译  名 亚当斯一家/爱登士家庭(港)/阿达一族
◎片  名 The Addams Family
◎年  代 1991
◎产  地 美国
◎类  别 喜剧 / 家庭 / 奇幻
◎语  言 英语
◎上映日期 1991-11-22
◎豆瓣评分 8.5/10 from 53198 users
◎ 
◎片  长 100分钟
◎导  演 巴里·索南菲尔德 Barry Sonnenfeld
◎编  剧 卡罗琳·汤普森 Caroline Thompson
◎主  演 安杰丽卡·休斯顿 Anjelica Huston
     劳尔·胡里亚 Raul Julia
     克里斯托弗·洛伊德 Christopher Lloyd
     克里斯蒂娜·里奇 Christina Ricci
     丹娜·爱薇 Dana Ivey
     卡雷尔·斯特鲁基 Carel Struycken
     丹·哈达亚 Dan Hedaya
     伊莉莎白·威尔森 Elizabeth Wilson

◎标  签 黑色幽默 | 哥特 | 喜剧 | 美国 | 奇幻 | 魔幻 | 歌特 | 美国电影

◎简  介

  亚当斯庄园里住着一个典型哥特式家庭。戈梅斯(劳尔·朱力亚 Raul Julia饰)和妻子(安杰丽卡·休斯顿 Anjelica Huston饰)终年生活在这里,到处弥漫阴郁腐败的气息。二人感情如蜜,有一双喜欢玩谋杀游戏的儿女。戈梅斯的心里,却埋藏着一个伤疤。那就是他曾经和哥哥费斯特失和,费斯特已经失踪25年,戈梅特仍然放不下对哥哥的惦念。
  
  一心要夺取亚当斯庄园和这里的财富的母亲有一个儿子戈登(克里斯托弗·洛伊德 Christopher Lloyd饰),貌相跟费斯特相向。于是,一场阴谋上演了,她教唆戈登佯装费斯特潜入亚当斯庄园,利用戈梅斯的兄弟情一步一步地夺取庄园。
  
  果然,戈登的到来不仅使戈梅斯大为惊喜,他渐渐融入这里的家庭生活,戈梅斯一家也随之陷入危险的泥沼中。当他们被夺走家产,凄苦沦落时,事情又有了峰回路转的变化。

◎获奖情况

  第64届奥斯卡金像奖 ?(1992)
  最佳服装设计(提名) 露丝·迈尔斯
Video
ID             : 1
Format           : HEVC
Format/Info          : High Efficiency Video Coding
Format profile         : Main @High
Codec ID           : V_MPEGH/ISO/HEVC
Duration           : 1 h 41 min
Bit rate           : 42.7 Mb/s
Width            : 3 840 pixels
Height           : 2 076 pixels
Display aspect ratio       : 1.85:1
Frame rate mode        : Constant
Frame rate           : 23.976 (24000/1001/189150) FPS
Color space          : YUV
Chroma subsampling       : 4:2:0
Bit depth          : 10 bits
Bits/(Pixel*Frame)       : 0.223
Stream size          : 30.2 GiB (90%)
Writing library        : x265 3.0ed72af837053:[Windows][GCC 8.2.0][64 bit] 10bit
Encoding settings        : cpuid=1111039 / frame-threads=6 / numa-pools=40 / wpp / no-pmode / no-pme / no-psnr / no-ssim / log-level=2 / input-csp=1 / input-res=3840x2076 / interlace=0 / total-frames=145511 / level-idc=51 / high-tier=1 / uhd-bd=0 / ref=3 / no-allow-non-conformance / repeat-headers / annexb / aud / hrd / info / hash=0 / no-temporal-layers / no-open-gop / min-keyint=1 / keyint=24 / gop-lookahead=0 / bframes=4 / b-adapt=2 / b-pyramid / bframe-bias=0 / rc-lookahead=25 / lookahead-slices=4 / scenecut=40 / radl=0 / no-splice / no-intra-refresh / ctu=64 / min-cu-size=8 / no-rect / no-amp / max-tu-size=32 / tu-inter-depth=1 / tu-intra-depth=1 / limit-tu=0 / rdoq-level=0 / dynamic-rd=0.00 / no-ssim-rd / signhide / no-tskip / nr-intra=0 / nr-inter=0 / no-constrained-intra / strong-intra-smoothing / max-merge=2 / limit-refs=3 / no-limit-modes / me=1 / subme=2 / merange=57 / temporal-mvp / weightp / no-weightb / no-analyze-src-pics / deblock=0:0 / no-sao / no-sao-non-deblock / rd=3 / no-early-skip / rskip / no-fast-intra / no-tskip-fast / no-cu-lossless / no-b-intra / no-splitrd-skip / rdpenalty=0 / psy-rd=2.00 / psy-rdoq=0.00 / no-rd-refine / no-lossless / cbqpoffs=0 / crqpoffs=0 / rc=crf / crf=16.0 / qcomp=0.60 / qpstep=4 / stats-write=0 / stats-read=0 / vbv-maxrate=160000 / vbv-bufsize=160000 / vbv-init=0.9 / crf-max=0.0 / crf-min=0.0 / ipratio=1.40 / pbratio=1.30 / aq-mode=1 / aq-strength=1.00 / cutree / zone-count=0 / no-strict-cbr / qg-size=32 / no-rc-grain / qpmax=69 / qpmin=0 / no-const-vbv / sar=1 / overscan=0 / videoformat=5 / range=0 / colorprim=2 / transfer=2 / colormatrix=2 / chromaloc=0 / display-window=0 / max-cll=0,0 / min-luma=0 / max-luma=1023 / log2-max-poc-lsb=8 / vui-timing-info / vui-hrd-info / slices=1 / opt-qp-pps / opt-ref-list-length-pps / no-multi-pass-opt-rps / scenecut-bias=0.05 / no-opt-cu-delta-qp / no-aq-motion / no-hdr / no-hdr-opt / no-dhdr10-opt / no-idr-recovery-sei / analysis-reuse-level=5 / scale-factor=0 / refine-intra=0 / refine-inter=0 / refine-mv=0 / refine-ctu-distortion=0 / no-limit-sao / ctu-info=0 / no-lowpass-dct / refine-analysis-type=0 / copy-pic=1 / max-ausize-factor=1.0 / no-dynamic-refine / no-single-sei / no-hevc-aq / qp-adaptation-range=1.00
Default            : Yes
Forced           : No

Audio #1
ID             : 2
ID in the original source medium   : 4352 (0x1100)
Format           : DTS XLL
Format/Info          : Digital Theater Systems
Commercial name        : DTS-HD Master Audio
Codec ID           : A_DTS
Duration           : 1 h 41 min
Bit rate mode          : Variable
Bit rate           : 4 150 kb/s
Channel(s)           : 6 channels
Channel layout         : C L R Ls Rs LFE
Sampling rate          : 48.0 kHz
Frame rate           : 93.750 FPS (512 SPF)
Bit depth          : 24 bits
Compression mode         : Lossless
Stream size          : 2.93 GiB (9%)
Title            : DTS-HD MA 5.1
Language           : English
Default            : Yes
Forced           : No
Original source medium       : Blu-ray

Audio #2
ID             : 3
Format           : AC-3
Format/Info          : Audio Coding 3
Commercial name        : Dolby Digital
Codec ID           : A_AC3
Duration           : 1 h 41 min
Bit rate mode          : Constant
Bit rate           : 640 kb/s
Channel(s)           : 6 channels
Channel layout         : L R C LFE Ls Rs
Sampling rate          : 48.0 kHz
Frame rate           : 31.250 FPS (1536 SPF)
Compression mode         : Lossy
Stream size          : 463 MiB (1%)
Title            : DD 5.1
Language           : English
Service kind         : Complete Main
Default            : No
Forced           : No

Text #1
ID             : 4
Format           : UTF-8
Codec ID           : S_TEXT/UTF8
Codec ID/Info          : UTF-8 Plain Text
Duration           : 1 h 32 min
Bit rate           : 48 b/s
Count of elements        : 1129
Stream size          : 32.9 KiB (0%)
Language           : English
Default            : Yes
Forced           : No

Text #2
ID             : 5
ID in the original source medium   : 4768 (0x12A0)
Format           : PGS
Muxing mode          : zlib
Codec ID           : S_HDMV/PGS
Codec ID/Info          : Picture based subtitle format used on BDs/HD-DVDs
Duration           : 1 h 32 min
Bit rate           : 33.9 kb/s
Count of elements        : 2262
Stream size          : 22.4 MiB (0%)
Language           : English
Default            : No
Forced           : No
Original source medium       : Blu-ray

Text #3
ID             : 6
ID in the original source medium   : 4769 (0x12A1)
Format           : PGS
Muxing mode          : zlib
Codec ID           : S_HDMV/PGS
Codec ID/Info          : Picture based subtitle format used on BDs/HD-DVDs
Duration           : 1 h 36 min
Bit rate           : 39.8 kb/s
Count of elements        : 2824
Stream size          : 27.5 MiB (0%)
Language           : English
Default            : No
Forced           : No
Original source medium       : Blu-ray

Text #4
ID             : 7
ID in the original source medium   : 4770 (0x12A2)
Format           : PGS
Muxing mode          : zlib
Codec ID           : S_HDMV/PGS
Codec ID/Info          : Picture based subtitle format used on BDs/HD-DVDs
Duration           : 1 h 39 min
Bit rate           : 26.3 kb/s
Count of elements        : 2020
Stream size          : 18.8 MiB (0%)
Language           : French
Default            : No
Forced           : No
Original source medium       : Blu-ray

Text #5
ID             : 8
ID in the original source medium   : 4770 (0x12A2)
Format           : PGS
Muxing mode          : zlib
Codec ID           : S_HDMV/PGS
Codec ID/Info          : Picture based subtitle format used on BDs/HD-DVDs
Duration           : 1 h 39 min
Bit rate           : 1 135 b/s
Count of elements        : 76
Stream size          : 828 KiB (0%)
Title            : FORCED
Language           : French
Default            : No
Forced           : No
Original source medium       : Blu-ray

Menu
00:00:00.000         : en:Chapter 01
00:02:58.428         : en:Chapter 02
00:06:45.738         : en:Chapter 03
00:13:45.491         : en:Chapter 04
00:17:21.415         : en:Chapter 05
00:23:21.483         : en:Chapter 06
00:29:24.220         : en:Chapter 07
00:36:06.539         : en:Chapter 08
00:41:57.515         : en:Chapter 09
00:49:35.597         : en:Chapter 10
00:57:36.703         : en:Chapter 11
01:05:03.190         : en:Chapter 12
01:15:12.508         : en:Chapter 13
01:19:17.586         : en:Chapter 14
01:24:33.151         : en:Chapter 15
01:27:46.719         : en:Chapter 16
01:32:36.717         : en:Chapter 17
01:36:38.250         : en:Chapter 18

[/url]

[/url]




                                                                  
                                                                                                                                                                                                                                                                                 
c98f4ceaab8566becc1fe6feaf8451df.torrent (42.89 KB, 下载次数: 0)

回复

使用道具 举报

小黑屋|百度云资源论坛

本网站所有资源来自网络,如无意中侵犯了您的权益,请发邮件至 [email protected],立即清除相关链接

GMT+8, 2024-7-22 07:18 , Processed in 0.116367 second(s), 30 queries .

Powered by Discuz! X3.2

© 2001-2013 Comsenz Inc.

快速回复 返回顶部 返回列表