百度云资源论坛

 找回密码
 立即注册
搜索

[BD-4K] 圣诞讼 The.Fight.Before.Christmas.2021.2160p.WEB.h265-RUMOUR 13.29GB

[复制链接]
admin 发表于 2021-11-28 00:45:49 | 显示全部楼层 |阅读模式
圣诞讼 The.Fight.Before.Christmas.2021.2160p.WEB.h265-RUMOUR 13.29GB                                                                                                                                                                              -->
帖子完整标题:圣诞讼 The.Fight.Before.Christmas.2021.2160p.WEB.h265-RUMOUR 13.29GB





◎译  名 圣诞讼/The Fight Before Christmas
◎片  名 'Twas the Fight Before Christmas
◎年  代 2021
◎产  地 英国
◎类  别 纪录片
◎语  言 英语
◎上映日期 2021-11-26(美国)
◎豆瓣评分 /10 from 0 users
◎ 
◎片  长 91分钟

◎简  介

  Follows a Christmas-loving man who gets obsessed with bringing Christmas cheer to all, and causes a fight when the homeowners' association informs him that the event he planned violates the rules of the neighborhood.
Video
ID             : 1
Format           : HEVC
Format/Info          : High Efficiency Video Coding
Format profile         : Main @High
Codec ID           : V_MPEGH/ISO/HEVC
Duration           : 1 h 27 min
Bit rate           : 20.7 Mb/s
Width            : 3 840 pixels
Height           : 1 636 pixels
Display aspect ratio       : 2.35:1
Frame rate mode        : Constant
Frame rate           : 23.976 (23976/1000/189150) FPS
Color space          : YUV
Chroma subsampling       : 4:2:0
Bit depth          : 10 bits
Bits/(Pixel*Frame)       : 0.137
Stream size          : 12.6 GiB (96%)
Language           : English
Default            : Yes
Forced           : No
Color range          : Limited
Color primaries        : BT.709
Transfer characteristics     : BT.709
Matrix coefficients        : BT.709

Audio
ID             : 2
Format           : E-AC-3 JOC
Format/Info          : Enhanced AC-3 with Joint Object Coding
Commercial name        : Dolby Digital Plus with Dolby Atmos
Codec ID           : A_EAC3
Duration           : 1 h 31 min
Bit rate mode          : Constant
Bit rate           : 768 kb/s
Channel(s)           : 6 channels
Channel layout         : L R C LFE Ls Rs
Sampling rate          : 48.0 kHz
Frame rate           : 31.250 FPS (1536 SPF)
Compression mode         : Lossy
Stream size          : 503 MiB (4%)
Language           : English
Service kind         : Complete Main
Default            : Yes
Forced           : No
Complexity index         : 16
Number of dynamic objects      : 15
Bed channel count        : 1 channel
Bed channel configuration      : LFE

Text #1
ID             : 3
Format           : UTF-8
Codec ID           : S_TEXT/UTF8
Codec ID/Info          : UTF-8 Plain Text
Duration           : 1 h 30 min
Bit rate           : 126 b/s
Count of elements        : 1544
Stream size          : 83.9 KiB (0%)
Title            : ???????
Language           : Arabic
Default            : No
Forced           : No

Text #2
ID             : 4
Format           : UTF-8
Codec ID           : S_TEXT/UTF8
Codec ID/Info          : UTF-8 Plain Text
Duration           : 1 h 30 min
Bit rate           : 139 b/s
Count of elements        : 1395
Stream size          : 92.8 KiB (0%)
Title            : български
Language           : Bulgarian
Default            : No
Forced           : No

Text #3
ID             : 5
Format           : UTF-8
Codec ID           : S_TEXT/UTF8
Codec ID/Info          : UTF-8 Plain Text
Duration           : 1 h 30 min
Bit rate           : 81 b/s
Count of elements        : 1547
Stream size          : 54.1 KiB (0%)
Title            : 中文(简体)
Language           : Chinese
Default            : No
Forced           : No

Text #4
ID             : 6
Format           : UTF-8
Codec ID           : S_TEXT/UTF8
Codec ID/Info          : UTF-8 Plain Text
Duration           : 1 h 30 min
Bit rate           : 81 b/s
Count of elements        : 1548
Stream size          : 53.9 KiB (0%)
Title            : 中文(繁體)
Language           : Chinese
Default            : No
Forced           : No

Text #5
ID             : 7
Format           : UTF-8
Codec ID           : S_TEXT/UTF8
Codec ID/Info          : UTF-8 Plain Text
Duration           : 1 h 30 min
Bit rate           : 85 b/s
Count of elements        : 1371
Stream size          : 56.5 KiB (0%)
Title            : ?e?tina
Language           : Czech
Default            : No
Forced           : No

Text #6
ID             : 8
Format           : UTF-8
Codec ID           : S_TEXT/UTF8
Codec ID/Info          : UTF-8 Plain Text
Duration           : 1 h 30 min
Bit rate           : 85 b/s
Count of elements        : 1333
Stream size          : 56.8 KiB (0%)
Title            : dansk
Language           : Danish
Default            : No
Forced           : No

Text #7
ID             : 9
Format           : UTF-8
Codec ID           : S_TEXT/UTF8
Codec ID/Info          : UTF-8 Plain Text
Duration           : 1 h 30 min
Bit rate           : 89 b/s
Count of elements        : 1372
Stream size          : 59.7 KiB (0%)
Title            : Deutsch
Language           : German
Default            : No
Forced           : No

Text #8
ID             : 10
Format           : UTF-8
Codec ID           : S_TEXT/UTF8
Codec ID/Info          : UTF-8 Plain Text
Duration           : 1 h 30 min
Bit rate           : 151 b/s
Count of elements        : 1511
Stream size          : 101 KiB (0%)
Title            : Ελληνικ?
Language           : Greek
Default            : No
Forced           : No

Text #9
ID             : 11
Format           : UTF-8
Codec ID           : S_TEXT/UTF8
Codec ID/Info          : UTF-8 Plain Text
Duration           : 1 h 29 min
Bit rate           : 96 b/s
Count of elements        : 1491
Stream size          : 63.2 KiB (0%)
Title            : English
Language           : English
Default            : No
Forced           : No

Text #10
ID             : 12
Format           : UTF-8
Codec ID           : S_TEXT/UTF8
Codec ID/Info          : UTF-8 Plain Text
Duration           : 1 h 25 min
Bit rate           : 5 b/s
Count of elements        : 85
Stream size          : 3.46 KiB (0%)
Title            : English (forced)
Language           : English
Default            : Yes
Forced           : Yes

Text #11
ID             : 13
Format           : UTF-8
Codec ID           : S_TEXT/UTF8
Codec ID/Info          : UTF-8 Plain Text
Duration           : 1 h 30 min
Bit rate           : 83 b/s
Count of elements        : 1399
Stream size          : 55.6 KiB (0%)
Title            : Espa?ol (Latinoamérica)
Language           : Spanish
Default            : No
Forced           : No

Text #12
ID             : 14
Format           : UTF-8
Codec ID           : S_TEXT/UTF8
Codec ID/Info          : UTF-8 Plain Text
Duration           : 1 h 30 min
Bit rate           : 88 b/s
Count of elements        : 1494
Stream size          : 58.9 KiB (0%)
Title            : Espa?ol (Espa?a)
Language           : Spanish
Default            : No
Forced           : No

Text #13
ID             : 15
Format           : UTF-8
Codec ID           : S_TEXT/UTF8
Codec ID/Info          : UTF-8 Plain Text
Duration           : 1 h 30 min
Bit rate           : 86 b/s
Count of elements        : 1424
Stream size          : 57.2 KiB (0%)
Title            : eesti
Language           : Estonian
Default            : No
Forced           : No

Text #14
ID             : 16
Format           : UTF-8
Codec ID           : S_TEXT/UTF8
Codec ID/Info          : UTF-8 Plain Text
Duration           : 1 h 30 min
Bit rate           : 84 b/s
Count of elements        : 1496
Stream size          : 55.8 KiB (0%)
Title            : Suomi
Language           : Finnish
Default            : No
Forced           : No

Text #15
ID             : 17
Format           : UTF-8
Codec ID           : S_TEXT/UTF8
Codec ID/Info          : UTF-8 Plain Text
Duration           : 1 h 30 min
Bit rate           : 87 b/s
Count of elements        : 1512
Stream size          : 58.2 KiB (0%)
Title            : Fran?ais (Canada)
Language           : French
Default            : No
Forced           : No

Text #16
ID             : 18
Format           : UTF-8
Codec ID           : S_TEXT/UTF8
Codec ID/Info          : UTF-8 Plain Text
Duration           : 1 h 30 min
Bit rate           : 87 b/s
Count of elements        : 1512
Stream size          : 58.2 KiB (0%)
Title            : Fran?ais (France)
Language           : French
Default            : No
Forced           : No

Text #17
ID             : 19
Format           : UTF-8
Codec ID           : S_TEXT/UTF8
Codec ID/Info          : UTF-8 Plain Text
Duration           : 1 h 30 min
Bit rate           : 122 b/s
Count of elements        : 1547
Stream size          : 81.3 KiB (0%)
Title            : ?????
Language           : Hebrew
Default            : No
Forced           : No

Text #18
ID             : 20
Format           : UTF-8
Codec ID           : S_TEXT/UTF8
Codec ID/Info          : UTF-8 Plain Text
Duration           : 1 h 30 min
Bit rate           : 241 b/s
Count of elements        : 1548
Stream size          : 160 KiB (0%)
Title            : ??????
Language           : Hindi
Default            : No
Forced           : No

Text #19
ID             : 21
Format           : UTF-8
Codec ID           : S_TEXT/UTF8
Codec ID/Info          : UTF-8 Plain Text
Duration           : 1 h 30 min
Bit rate           : 94 b/s
Count of elements        : 1493
Stream size          : 63.0 KiB (0%)
Title            : magyar
Language           : Hungarian
Default            : No
Forced           : No

Text #20
ID             : 22
Format           : UTF-8
Codec ID           : S_TEXT/UTF8
Codec ID/Info          : UTF-8 Plain Text
Duration           : 1 h 30 min
Bit rate           : 86 b/s
Count of elements        : 1522
Stream size          : 57.6 KiB (0%)
Title            : Bahasa Indonesia
Language           : Indonesian
Default            : No
Forced           : No

Text #21
ID             : 23
Format           : UTF-8
Codec ID           : S_TEXT/UTF8
Codec ID/Info          : UTF-8 Plain Text
Duration           : 1 h 30 min
Bit rate           : 87 b/s
Count of elements        : 1504
Stream size          : 58.2 KiB (0%)
Title            : Italiano
Language           : Italian
Default            : No
Forced           : No

Text #22
ID             : 24
Format           : UTF-8
Codec ID           : S_TEXT/UTF8
Codec ID/Info          : UTF-8 Plain Text
Duration           : 1 h 30 min
Bit rate           : 81 b/s
Count of elements        : 1452
Stream size          : 54.5 KiB (0%)
Title            : 日本語
Language           : Japanese
Default            : No
Forced           : No

Text #23
ID             : 25
Format           : UTF-8
Codec ID           : S_TEXT/UTF8
Codec ID/Info          : UTF-8 Plain Text
Duration           : 1 h 30 min
Bit rate           : 103 b/s
Count of elements        : 1550
Stream size          : 68.4 KiB (0%)
Title            : ???
Language           : Korean
Default            : No
Forced           : No

Text #24
ID             : 26
Format           : UTF-8
Codec ID           : S_TEXT/UTF8
Codec ID/Info          : UTF-8 Plain Text
Duration           : 1 h 30 min
Bit rate           : 91 b/s
Count of elements        : 1542
Stream size          : 60.4 KiB (0%)
Title            : lietuvi?
Language           : Lithuanian
Default            : No
Forced           : No

Text #25
ID             : 27
Format           : UTF-8
Codec ID           : S_TEXT/UTF8
Codec ID/Info          : UTF-8 Plain Text
Duration           : 1 h 30 min
Bit rate           : 92 b/s
Count of elements        : 1543
Stream size          : 61.4 KiB (0%)
Title            : latvie?u
Language           : Latvian
Default            : No
Forced           : No

Text #26
ID             : 28
Format           : UTF-8
Codec ID           : S_TEXT/UTF8
Codec ID/Info          : UTF-8 Plain Text
Duration           : 1 h 30 min
Bit rate           : 91 b/s
Count of elements        : 1522
Stream size          : 60.8 KiB (0%)
Title            : Bahasa Melayu
Language           : Malay
Default            : No
Forced           : No

Text #27
ID             : 29
Format           : UTF-8
Codec ID           : S_TEXT/UTF8
Codec ID/Info          : UTF-8 Plain Text
Duration           : 1 h 30 min
Bit rate           : 80 b/s
Count of elements        : 1306
Stream size          : 53.5 KiB (0%)
Title            : Nederlands
Language           : Dutch
Default            : No
Forced           : No

Text #28
ID             : 30
Format           : UTF-8
Codec ID           : S_TEXT/UTF8
Codec ID/Info          : UTF-8 Plain Text
Duration           : 1 h 30 min
Bit rate           : 80 b/s
Count of elements        : 1274
Stream size          : 53.7 KiB (0%)
Title            : norsk
Language           : Norwegian
Default            : No
Forced           : No

Text #29
ID             : 31
Format           : UTF-8
Codec ID           : S_TEXT/UTF8
Codec ID/Info          : UTF-8 Plain Text
Duration           : 1 h 30 min
Bit rate           : 84 b/s
Count of elements        : 1399
Stream size          : 56.1 KiB (0%)
Title            : polski
Language           : Polish
Default            : No
Forced           : No

Text #30
ID             : 32
Format           : UTF-8
Codec ID           : S_TEXT/UTF8
Codec ID/Info          : UTF-8 Plain Text
Duration           : 1 h 30 min
Bit rate           : 81 b/s
Count of elements        : 1520
Stream size          : 54.3 KiB (0%)
Title            : Português (Brasil)
Language           : Portuguese
Default            : No
Forced           : No

Text #31
ID             : 33
Format           : UTF-8
Codec ID           : S_TEXT/UTF8
Codec ID/Info          : UTF-8 Plain Text
Duration           : 1 h 30 min
Bit rate           : 97 b/s
Count of elements        : 1516
Stream size          : 64.6 KiB (0%)
Title            : Português
Language           : Portuguese
Default            : No
Forced           : No

Text #32
ID             : 34
Format           : UTF-8
Codec ID           : S_TEXT/UTF8
Codec ID/Info          : UTF-8 Plain Text
Duration           : 1 h 30 min
Bit rate           : 152 b/s
Count of elements        : 1548
Stream size          : 101 KiB (0%)
Title            : Русский
Language           : Russian
Default            : No
Forced           : No

Text #33
ID             : 35
Format           : UTF-8
Codec ID           : S_TEXT/UTF8
Codec ID/Info          : UTF-8 Plain Text
Duration           : 1 h 30 min
Bit rate           : 87 b/s
Count of elements        : 1496
Stream size          : 57.8 KiB (0%)
Title            : Sloven?ina
Language           : Slovak
Default            : No
Forced           : No

Text #34
ID             : 36
Format           : UTF-8
Codec ID           : S_TEXT/UTF8
Codec ID/Info          : UTF-8 Plain Text
Duration           : 1 h 30 min
Bit rate           : 72 b/s
Count of elements        : 1460
Stream size          : 48.3 KiB (0%)
Title            : sloven??ina
Language           : Slovenian
Default            : No
Forced           : No

Text #35
ID             : 37
Format           : UTF-8
Codec ID           : S_TEXT/UTF8
Codec ID/Info          : UTF-8 Plain Text
Duration           : 1 h 30 min
Bit rate           : 87 b/s
Count of elements        : 1452
Stream size          : 58.2 KiB (0%)
Title            : Svenska
Language           : Swedish
Default            : No
Forced           : No

Text #36
ID             : 38
Format           : UTF-8
Codec ID           : S_TEXT/UTF8
Codec ID/Info          : UTF-8 Plain Text
Duration           : 1 h 30 min
Bit rate           : 284 b/s
Count of elements        : 1546
Stream size          : 189 KiB (0%)
Title            : ?????
Language           : Tamil
Default            : No
Forced           : No

Text #37
ID             : 39
Format           : UTF-8
Codec ID           : S_TEXT/UTF8
Codec ID/Info          : UTF-8 Plain Text
Duration           : 1 h 30 min
Bit rate           : 264 b/s
Count of elements        : 1548
Stream size          : 176 KiB (0%)
Title            : ??????
Language           : Telugu
Default            : No
Forced           : No

Text #38
ID             : 40
Format           : UTF-8
Codec ID           : S_TEXT/UTF8
Codec ID/Info          : UTF-8 Plain Text
Duration           : 1 h 30 min
Bit rate           : 190 b/s
Count of elements        : 1547
Stream size          : 126 KiB (0%)
Title            : ???
Language           : Thai
Default            : No
Forced           : No

Text #39
ID             : 41
Format           : UTF-8
Codec ID           : S_TEXT/UTF8
Codec ID/Info          : UTF-8 Plain Text
Duration           : 1 h 30 min
Bit rate           : 91 b/s
Count of elements        : 1520
Stream size          : 61.0 KiB (0%)
Title            : Türk?e
Language           : Turkish
Default            : No
Forced           : No

Text #40
ID             : 42
Format           : UTF-8
Codec ID           : S_TEXT/UTF8
Codec ID/Info          : UTF-8 Plain Text
Duration           : 1 h 30 min
Bit rate           : 134 b/s
Count of elements        : 1541
Stream size          : 89.2 KiB (0%)
Title            : укра?нська
Language           : Ukrainian
Default            : No
Forced           : No

Text #41
ID             : 43
Format           : UTF-8
Codec ID           : S_TEXT/UTF8
Codec ID/Info          : UTF-8 Plain Text
Duration           : 1 h 30 min
Bit rate           : 113 b/s
Count of elements        : 1524
Stream size          : 75.1 KiB (0%)
Title            : Ti?ng Vi?t
Language           : Vietnamese
Default            : No
Forced           : No

Text #42
ID             : 44
Format           : UTF-8
Codec ID           : S_TEXT/UTF8
Codec ID/Info          : UTF-8 Plain Text
Duration           : 1 h 30 min
Bit rate           : 79 b/s
Count of elements        : 1548
Stream size          : 52.6 KiB (0%)
Title            : 廣東話
Language           : Chinese
Default            : No
Forced           : No

Text #43
ID             : 45
Format           : UTF-8
Codec ID           : S_TEXT/UTF8
Codec ID/Info          : UTF-8 Plain Text
Duration           : 1 h 29 min
Bit rate           : 102 b/s
Count of elements        : 1556
Stream size          : 67.6 KiB (0%)
Title            : English[SDH]
Language           : English
Default            : No
Forced           : No

[/url]




                                                                  
                                                                                                                                                                                                                                                                                 
38b2daf291f7445e37bc24cf64d14632.torrent (17.43 KB, 下载次数: 0)

回复

使用道具 举报

小黑屋|百度云资源论坛

本网站所有资源来自网络,如无意中侵犯了您的权益,请发邮件至 [email protected],立即清除相关链接

GMT+8, 2024-7-22 07:08 , Processed in 0.082862 second(s), 26 queries .

Powered by Discuz! X3.2

© 2001-2013 Comsenz Inc.

快速回复 返回顶部 返回列表