百度云资源论坛

 找回密码
 立即注册
搜索

[BD-4K] 成为康斯塔 Becoming.Cousteau.2021.2160p.WEB-DL.DDP5.1.DV.MP4.x265-TEPES 14.65GB ...

[复制链接]
admin 发表于 2021-11-28 00:45:49 | 显示全部楼层 |阅读模式
成为康斯塔 Becoming.Cousteau.2021.2160p.WEB-DL.DDP5.1.DV.MP4.x265-TEPES 14.65GB                                                                                                                                                                              -->
帖子完整标题:成为康斯塔 Becoming.Cousteau.2021.2160p.WEB-DL.DDP5.1.DV.MP4.x265-TEPES 14.65GB





◎译  名 成为康斯塔/Cousteau/库斯托/科斯托
◎片  名 Becoming Cousteau
◎年  代 2021
◎产  地 美国
◎类  别 纪录片
◎语  言 英语
◎上映日期 2021-09-02(特柳赖德电影节) / 2021-09-11(多伦多国际电影节)
◎豆瓣评分 /10 from 0 users
◎ 
◎片  长 93分钟
◎导  演 莉兹·加伯斯 Liz Garbus
◎编  剧 马克·蒙雷 Mark Monroe
◎主  演 雅克·伊夫斯·科斯托 Jacques-Yves Cousteau

◎标  签 纪录片 | 美国 | 小台 | 2021

◎简  介

  Its focus will be on the inventor-explorer-environmentalist-filmmaker revolution, i.e., giving mankind the resources to explore the ocean with the Aqua Lung, calling attention to ocean pollution, and his longtime collaboration.
Video
ID             : 1
Format           : HEVC
Format/Info          : High Efficiency Video Coding
Format profile         : Main @Main
HDR format           : Dolby Vision, Version 1.0, dvhe.05.06, BL+RPU
Codec ID           : dvhe
Codec ID/Info          : High Efficiency Video Coding with Dolby Vision
Duration           : 1 h 33 min
Bit rate           : 22.1 Mb/s
Width            : 3 840 pixels
Height           : 2 160 pixels
Display aspect ratio       : 16:9
Frame rate mode        : Constant
Frame rate           : 23.976 (24000/1001/189150) FPS
Color space          : YUV
Chroma subsampling       : 4:2:0 (Type 0)
Bit depth          : 10 bits
Bits/(Pixel*Frame)       : 0.111
Stream size          : 14.5 GiB (99%)
Default            : Yes
Alternate group        : 1
Color range          : Full
Codec configuration box      : hvcC+dvcC

Audio
ID             : 2
Format           : E-AC-3
Format/Info          : Enhanced AC-3
Commercial name        : Dolby Digital Plus
Codec ID           : ec-3
Duration           : 1 h 33 min
Source duration        : 1 h 33 min
Bit rate mode          : Constant
Bit rate           : 256 kb/s
Maximum bit rate         : 270 kb/s
Channel(s)           : 6 channels
Channel layout         : L R C LFE Ls Rs
Sampling rate          : 48.0 kHz
Frame rate           : 31.250 FPS (1536 SPF)
Compression mode         : Lossy
Stream size          : 172 MiB (1%)
Source stream size       : 172 MiB (1%)
Language           : English
Service kind         : Complete Main
Default            : Yes
Alternate group        : 1

Text #1
ID             : 4
Format           : Timed Text
Codec ID           : tx3g
Duration           : 1 h 29 min
Bit rate mode          : Variable
Bit rate           : 73 b/s
Stream size          : 47.7 KiB (0%)
Language           : English
Forced           : No

Text #2
ID             : 5
Format           : Timed Text
Codec ID           : tx3g
Duration           : 1 h 33 min
Bit rate mode          : Variable
Bit rate           : 79 b/s
Stream size          : 54.2 KiB (0%)
Title            : SDH
Language           : English
Forced           : No

Text #3
ID             : 6
Format           : Timed Text
Codec ID           : tx3g
Duration           : 1 h 30 min
Bit rate mode          : Variable
Bit rate           : 73 b/s
Stream size          : 48.3 KiB (0%)
Title            : Hong Kong
Language           : Chinese
Forced           : No

Text #4
ID             : 7
Format           : Timed Text
Codec ID           : tx3g
Duration           : 1 h 33 min
Bit rate mode          : Variable
Bit rate           : 73 b/s
Stream size          : 49.8 KiB (0%)
Title            : Simplified
Language           : Chinese
Forced           : No

Text #5
ID             : 8
Format           : Timed Text
Codec ID           : tx3g
Duration           : 1 h 33 min
Bit rate mode          : Variable
Bit rate           : 69 b/s
Stream size          : 47.5 KiB (0%)
Title            : Traditional
Language           : Chinese
Forced           : No

Text #6
ID             : 9
Format           : Timed Text
Codec ID           : tx3g
Duration           : 1 h 33 min
Bit rate mode          : Variable
Bit rate           : 111 b/s
Stream size          : 76.5 KiB (0%)
Language           : Danish
Forced           : No

Text #7
ID             : 10
Format           : Timed Text
Codec ID           : tx3g
Duration           : 1 h 33 min
Bit rate mode          : Variable
Bit rate           : 114 b/s
Stream size          : 78.5 KiB (0%)
Language           : German
Forced           : No

Text #8
ID             : 11
Format           : Timed Text
Codec ID           : tx3g
Duration           : 1 h 33 min
Bit rate mode          : Variable
Bit rate           : 105 b/s
Stream size          : 72.1 KiB (0%)
Language           : Spanish
Forced           : No

Text #9
ID             : 12
Format           : Timed Text
Codec ID           : tx3g
Duration           : 1 h 33 min
Bit rate mode          : Variable
Bit rate           : 113 b/s
Stream size          : 77.5 KiB (0%)
Title            : Latin American
Language           : Spanish
Forced           : No

Text #10
ID             : 13
Format           : Timed Text
Codec ID           : tx3g
Duration           : 1 h 33 min
Bit rate mode          : Variable
Bit rate           : 79 b/s
Stream size          : 54.0 KiB (0%)
Language           : French
Forced           : No

Text #11
ID             : 14
Format           : Timed Text
Codec ID           : tx3g
Duration           : 1 h 33 min
Bit rate mode          : Variable
Bit rate           : 160 b/s
Stream size          : 110 KiB (0%)
Language           : Greek
Forced           : No

Text #12
ID             : 15
Format           : Timed Text
Codec ID           : tx3g
Duration           : 1 h 33 min
Bit rate mode          : Variable
Bit rate           : 107 b/s
Stream size          : 73.7 KiB (0%)
Language           : Italian
Forced           : No

Text #13
ID             : 16
Format           : Timed Text
Codec ID           : tx3g
Duration           : 1 h 33 min
Bit rate mode          : Variable
Bit rate           : 83 b/s
Stream size          : 57.0 KiB (0%)
Language           : Korean
Forced           : No

Text #14
ID             : 17
Format           : Timed Text
Codec ID           : tx3g
Duration           : 1 h 33 min
Bit rate mode          : Variable
Bit rate           : 106 b/s
Stream size          : 72.5 KiB (0%)
Language           : Hungarian
Forced           : No

Text #15
ID             : 18
Format           : Timed Text
Codec ID           : tx3g
Duration           : 1 h 33 min
Bit rate mode          : Variable
Bit rate           : 65 b/s
Stream size          : 44.7 KiB (0%)
Language           : Dutch
Forced           : No

Text #16
ID             : 19
Format           : Timed Text
Codec ID           : tx3g
Duration           : 1 h 33 min
Bit rate mode          : Variable
Bit rate           : 106 b/s
Stream size          : 73.1 KiB (0%)
Language           : Norwegian
Forced           : No

Text #17
ID             : 20
Format           : Timed Text
Codec ID           : tx3g
Duration           : 1 h 33 min
Bit rate mode          : Variable
Bit rate           : 108 b/s
Stream size          : 73.9 KiB (0%)
Language           : Polish
Forced           : No

Text #18
ID             : 21
Format           : Timed Text
Codec ID           : tx3g
Duration           : 1 h 33 min
Bit rate mode          : Variable
Bit rate           : 113 b/s
Stream size          : 77.7 KiB (0%)
Language           : Portuguese
Forced           : No

Text #19
ID             : 22
Format           : Timed Text
Codec ID           : tx3g
Duration           : 1 h 33 min
Bit rate mode          : Variable
Bit rate           : 113 b/s
Stream size          : 77.2 KiB (0%)
Title            : Brazilian
Language           : Portuguese
Forced           : No

Text #20
ID             : 23
Format           : Timed Text
Codec ID           : tx3g
Duration           : 1 h 33 min
Bit rate mode          : Variable
Bit rate           : 97 b/s
Stream size          : 66.3 KiB (0%)
Language           : Romanian
Forced           : No

Text #21
ID             : 24
Format           : Timed Text
Codec ID           : tx3g
Duration           : 1 h 33 min
Bit rate mode          : Variable
Bit rate           : 99 b/s
Stream size          : 68.2 KiB (0%)
Language           : Slovak
Forced           : No

Text #22
ID             : 25
Format           : Timed Text
Codec ID           : tx3g
Duration           : 1 h 33 min
Bit rate mode          : Variable
Bit rate           : 104 b/s
Stream size          : 71.6 KiB (0%)
Language           : Finnish
Forced           : No

Text #23
ID             : 26
Format           : Timed Text
Codec ID           : tx3g
Duration           : 1 h 33 min
Bit rate mode          : Variable
Bit rate           : 107 b/s
Stream size          : 73.2 KiB (0%)
Language           : Swedish
Forced           : No

Text #24
ID             : 27
Format           : Timed Text
Codec ID           : tx3g
Duration           : 1 h 33 min
Bit rate mode          : Variable
Bit rate           : 114 b/s
Stream size          : 78.2 KiB (0%)
Language           : Turkish
Forced           : No

Text #25
ID             : 28
Format           : Timed Text
Codec ID           : tx3g
Duration           : 1 h 33 min
Bit rate mode          : Variable
Bit rate           : 92 b/s
Stream size          : 62.9 KiB (0%)
Language           : Czech
Forced           : No

Menu
01:32:21.166         : Credits





                                                                  
                                                                                                                                                                                                                                                                                 
13bc2aa77b9adc5346043a8689aa91a9.torrent (18.96 KB, 下载次数: 0)

回复

使用道具 举报

小黑屋|百度云资源论坛

本网站所有资源来自网络,如无意中侵犯了您的权益,请发邮件至 [email protected],立即清除相关链接

GMT+8, 2024-7-22 08:28 , Processed in 0.189967 second(s), 30 queries .

Powered by Discuz! X3.2

© 2001-2013 Comsenz Inc.

快速回复 返回顶部 返回列表