百度云资源论坛

 找回密码
 立即注册
搜索

猎杀时刻 Apex.2021.720p.BluRay.x264-UNVEiL 2.50GB

[复制链接]
admin 发表于 2021-11-24 19:00:36 | 显示全部楼层 |阅读模式
猎杀时刻 Apex.2021.720p.BluRay.x264-UNVEiL 2.50GB                                                                                                                                                                              -->
帖子完整标题:猎杀时刻 Apex.2021.720p.BluRay.x264-UNVEiL 2.50GB


        



◎译  名 猎杀时刻
◎片  名 Apex
◎年  代 2021
◎产  地 美国
◎类  别 动作 / 惊悚
◎语  言 英语
◎上映日期 2021-11-12(美国)
◎豆瓣评分 3.2/10 from 67 users
◎ 
◎片  长 94分钟
◎编  剧 科里·拉奇 Corey Large
◎主  演 布鲁斯·威利斯 Bruce Willis
     尼尔·麦克唐纳 Neal McDonough
     特雷弗·格雷茨基 Trevor Gretzky
     科里·拉奇 Corey Large

◎标  签 2021 | 美国 | 布鲁斯·威利斯 | 动作 | 科幻 | 美国电影 | 犯罪 | 小成本

◎简  介

  Five elite hunters pay to hunt down a man on a deserted island, only to find themselves becoming the prey.
Video
ID             : 1
Format           : AVC
Format/Info          : Advanced Video Codec
Format profile         :
Format settings        : CABAC / 8 Ref Frames
Format settings, CABAC       : Yes
Format settings, Reference frames  : 8 frames
Codec ID           : V_MPEG4/ISO/AVC
Duration           : 1 h 33 min
Bit rate           : 3 169 kb/s
Width            : 1 280 pixels
Height           : 536 pixels
Display aspect ratio       : 2.40:1
Frame rate mode        : Constant
Frame rate           : 23.976 (24000/1001/189150) FPS
Color space          : YUV
Chroma subsampling       : 4:2:0
Bit depth          : 8 bits
Scan type          : Progressive
Bits/(Pixel*Frame)       : 0.193
Stream size          : 2.07 GiB (83%)
Writing library        : x264 core 164 r3075 66a5bc1
Encoding settings        : cabac=1 / ref=8 / deblock=1:-3:-3 / analyse=0x3:0x133 / me=umh / subme=9 / psy=1 / psy_rd=1.00:0.00 / mixed_ref=1 / me_range=16 / chroma_me=1 / trellis=2 / 8x8dct=1 / cqm=0 / deadzone=21,11 / fast_pskip=0 / chroma_qp_offset=-2 / threads=17 / lookahead_threads=1 / sliced_threads=0 / nr=0 / decimate=1 / interlaced=0 / bluray_compat=0 / constrained_intra=0 / bframes=3 / b_pyramid=2 / b_adapt=2 / b_bias=0 / direct=3 / weightb=1 / open_gop=0 / weightp=2 / keyint=250 / keyint_min=23 / scenecut=40 / intra_refresh=0 / rc_lookahead=60 / rc=crf / mbtree=1 / crf=17.0 / qcomp=0.60 / qpmin=0 / qpmax=69 / qpstep=4 / ip_ratio=1.40 / aq=1:1.00
Language           : English
Default            : Yes
Forced           : No

Audio
ID             : 2
Format           : AC-3
Format/Info          : Audio Coding 3
Commercial name        : Dolby Digital
Codec ID           : A_AC3
Duration           : 1 h 33 min
Bit rate mode          : Constant
Bit rate           : 640 kb/s
Channel(s)           : 6 channels
Channel layout         : L R C LFE Ls Rs
Sampling rate          : 48.0 kHz
Frame rate           : 31.250 FPS (1536 SPF)
Compression mode         : Lossy
Stream size          : 428 MiB (17%)
Language           : English
Service kind         : Complete Main
Default            : Yes
Forced           : No

Text #1
ID             : 3
Format           : PGS
Muxing mode          : zlib
Codec ID           : S_HDMV/PGS
Codec ID/Info          : Picture based subtitle format used on BDs/HD-DVDs
Duration           : 1 h 32 min
Bit rate           : 41.6 kb/s
Count of elements        : 2974
Stream size          : 27.4 MiB (1%)
Language           : English
Default            : No
Forced           : No

Text #2
ID             : 4
Format           : PGS
Muxing mode          : zlib
Codec ID           : S_HDMV/PGS
Codec ID/Info          : Picture based subtitle format used on BDs/HD-DVDs
Duration           : 1 h 15 min
Bit rate           : 243 b/s
Count of elements        : 12
Stream size          : 135 KiB (0%)
Language           : German
Default            : No
Forced           : No

Menu
00:00:00.000         : en:Chapter 01
00:08:58.788         : en:Chapter 02
00:14:19.650         : en:Chapter 03
00:21:46.430         : en:Chapter 04
00:27:54.923         : en:Chapter 05
00:35:23.038         : en:Chapter 06
00:43:24.644         : en:Chapter 07
00:52:23.265         : en:Chapter 08
00:59:42.996         : en:Chapter 09
01:12:06.614         : en:Chapter 10
01:21:47.528         : en:Chapter 11
01:31:29.067         : en:Chapter 12
        






                                                                  
                                                                                                                                                                                                                                                                                 
2a522abe6ac147e1611d6537f87b0b80.torrent (25.73 KB, 下载次数: 0)

回复

使用道具 举报

小黑屋|百度云资源论坛

本网站所有资源来自网络,如无意中侵犯了您的权益,请发邮件至 [email protected],立即清除相关链接

GMT+8, 2024-7-21 01:54 , Processed in 0.100635 second(s), 30 queries .

Powered by Discuz! X3.2

© 2001-2013 Comsenz Inc.

快速回复 返回顶部 返回列表