百度云资源论坛

 找回密码
 立即注册
搜索

罪恶之家/探长来访 An.Inspector.Calls.2015.720p.BluRay.x264-FREEMAN 2.60GB ... ...

[复制链接]
admin 发表于 2021-11-23 18:44:33 | 显示全部楼层 |阅读模式
罪恶之家/探长来访 An.Inspector.Calls.2015.720p.BluRay.x264-FREEMAN 2.60GB                                                                                                                                                                              -->
帖子完整标题:罪恶之家/探长来访 An.Inspector.Calls.2015.720p.BluRay.x264-FREEMAN 2.60GB





◎译  名 罪恶之家/探长来访/探长驾到/检察官来访/神探驾到
◎片  名 An Inspector Calls
◎年  代 2015
◎产  地 英国
◎类  别 剧情 / 悬疑
◎语  言 英语
◎上映日期 2015-09-13(英国)
◎豆瓣评分 8.3/10 from 113166 users
◎ 
◎片  长 87分钟
◎导  演 艾斯林·沃什 Aisling Walsh
◎编  剧 J·B·普里斯特利 J.B. Priestley / 海伦·埃德蒙森 Helen Edmundson
◎主  演 大卫·休里斯 David Thewlis
     米兰达·理查森 Miranda Richardson
     苏菲·兰朵 Sophie Rundle
     肯·斯托特 Ken Stott
     芬恩·科尔 Finn Cole
     克洛伊·皮里 Chloe Pirrie
     凯尔·索列尔 Kyle Soller
     弗洛拉·尼科尔森 Flora Nicholson
     加里·戴维斯 Gary Davis
     万达·奥普琳斯卡 Wanda Opalinska

◎标  签 悬疑 | 英国 | 人性 | 推理 | 剧情 | BBC | 英剧 | 2015

◎简  介

  亚瑟(肯·斯托特 Ken Stott 饰)是一位成功的资本家,在不久之后即将加官进爵。希拉(克洛伊·皮里 Chloe Pirrie 饰)是亚瑟的女儿,这位单纯善良的千金小姐在家宴中接受了男友杰拉德(凯尔·索列尔 Kyle Soller 饰)的求婚,两人喜结连理,亚瑟和妻子对这门亲事显然十分满意,而希拉的弟弟艾瑞克(芬恩·科尔 Finn Cole 饰)却显然并不怎么高兴。
  
  就在一家人欢聚一堂之时,一位不速之客的到来让五人倍感警惕。来人自称警局的探长(大卫·休里斯 David Thewlis 饰),前来为一起女工自杀的案件调查取证,而这位名为伊娃(苏菲·兰道尔 Sophie Rundle 饰)的可怜姑娘曾经在亚瑟手下的工厂里干过活,并且因为领导罢工而被亚瑟开除。亚瑟并不认为自己应该为伊娃的死负什么责任,而随着时间的推移,众人渐渐发现,在这间狭小的房间里,无论是有意或无心,每一个人都是罪人。

◎获奖情况

  第2届豆瓣电影年度榜单 ?(2015)
  评分最高的外语电影(提名)
  评分最高的欧洲电影(提名)
  
  第6届豆瓣电影鑫像奖 ?(2016)
  鑫豆单元最佳影片(外语)(提名)
  鑫豆单元最佳惊悚/悬疑片(提名)
Video
ID             : 1
Format           : AVC
Format/Info          : Advanced Video Codec
Format profile         :
Format settings        : CABAC / 8 Ref Frames
Format settings, CABAC       : Yes
Format settings, Reference frames  : 8 frames
Codec ID           : V_MPEG4/ISO/AVC
Duration           : 1 h 26 min
Bit rate           : 3 633 kb/s
Width            : 1 280 pixels
Height           : 720 pixels
Display aspect ratio       : 16:9
Frame rate mode        : Constant
Frame rate           : 25.000 FPS
Color space          : YUV
Chroma subsampling       : 4:2:0
Bit depth          : 8 bits
Scan type          : Progressive
Bits/(Pixel*Frame)       : 0.158
Stream size          : 2.19 GiB (84%)
Writing library        : x264 core 164 r3075 66a5bc1
Encoding settings        : cabac=1 / ref=8 / deblock=1:-3:-3 / analyse=0x3:0x133 / me=umh / subme=9 / psy=1 / psy_rd=1.00:0.00 / mixed_ref=1 / me_range=16 / chroma_me=1 / trellis=2 / 8x8dct=1 / cqm=0 / deadzone=21,11 / fast_pskip=0 / chroma_qp_offset=-2 / threads=22 / lookahead_threads=1 / sliced_threads=0 / nr=0 / decimate=1 / interlaced=0 / bluray_compat=0 / constrained_intra=0 / bframes=3 / b_pyramid=2 / b_adapt=2 / b_bias=0 / direct=3 / weightb=1 / open_gop=0 / weightp=2 / keyint=250 / keyint_min=25 / scenecut=40 / intra_refresh=0 / rc_lookahead=60 / rc=crf / mbtree=1 / crf=17.0 / qcomp=0.60 / qpmin=0 / qpmax=69 / qpstep=4 / ip_ratio=1.40 / aq=3:1.00
Default            : Yes
Forced           : No
Color range          : Limited
Matrix coefficients        : BT.709

Audio
ID             : 2
Format           : AC-3
Format/Info          : Audio Coding 3
Commercial name        : Dolby Digital
Codec ID           : A_AC3
Duration           : 1 h 26 min
Bit rate mode          : Constant
Bit rate           : 640 kb/s
Channel(s)           : 6 channels
Channel layout         : L R C LFE Ls Rs
Sampling rate          : 48.0 kHz
Frame rate           : 31.250 FPS (1536 SPF)
Compression mode         : Lossy
Stream size          : 395 MiB (15%)
Language           : English
Service kind         : Complete Main
Default            : Yes
Forced           : No

Text #1
ID             : 3
Format           : PGS
Muxing mode          : zlib
Codec ID           : S_HDMV/PGS
Codec ID/Info          : Picture based subtitle format used on BDs/HD-DVDs
Duration           : 1 h 24 min
Bit rate           : 36.2 kb/s
Count of elements        : 1721
Stream size          : 22.0 MiB (1%)
Language           : English
Default            : No
Forced           : No

Text #2
ID             : 4
Format           : PGS
Muxing mode          : zlib
Codec ID           : S_HDMV/PGS
Codec ID/Info          : Picture based subtitle format used on BDs/HD-DVDs
Duration           : 1 h 24 min
Bit rate           : 37.1 kb/s
Count of elements        : 2056
Stream size          : 22.5 MiB (1%)
Language           : German
Default            : No
Forced           : No

Text #3
ID             : 5
Format           : PGS
Muxing mode          : zlib
Codec ID           : S_HDMV/PGS
Codec ID/Info          : Picture based subtitle format used on BDs/HD-DVDs
Duration           : 1 s 640 ms
Bit rate           : 119 kb/s
Count of elements        : 2
Stream size          : 23.8 KiB (0%)
Language           : German
Default            : No
Forced           : No

Menu
00:00:00.000         : en:00:00:00.000
00:09:21.040         : en:00:09:21.040
00:18:48.960         : en:00:18:48.960
00:34:16.440         : en:00:34:16.440
00:45:10.760         : en:00:45:10.760
00:57:46.040         : en:00:57:46.040
01:09:03.800         : en:01:09:03.800
01:18:51.960         : en:01:18:51.960
01:25:44.080         : en:01:25:44.080






                                                                  
                                                                                                                                                                                                                                                                                 
95216e19de0354737f24e5deed3e2a22.torrent (26.71 KB, 下载次数: 0)

回复

使用道具 举报

小黑屋|百度云资源论坛

本网站所有资源来自网络,如无意中侵犯了您的权益,请发邮件至 [email protected],立即清除相关链接

GMT+8, 2024-7-21 01:51 , Processed in 0.130679 second(s), 30 queries .

Powered by Discuz! X3.2

© 2001-2013 Comsenz Inc.

快速回复 返回顶部 返回列表