百度云资源论坛

 找回密码
 立即注册
搜索

巨齿鲨崛起/决战狂鲨 Megalodon.Rising.2021.720p.BluRay.x264-FREEMAN 3.29GB ... ...

[复制链接]
admin 发表于 2021-11-23 18:44:33 | 显示全部楼层 |阅读模式
巨齿鲨崛起/决战狂鲨 Megalodon.Rising.2021.720p.BluRay.x264-FREEMAN 3.29GB                                                                                                                                                                              -->
帖子完整标题:巨齿鲨崛起/决战狂鲨 Megalodon.Rising.2021.720p.BluRay.x264-FREEMAN 3.29GB





◎译  名 巨齿鲨崛起/决战狂鲨
◎片  名 Megalodon Rising
◎年  代 2021
◎产  地 美国
◎类  别 动作
◎语  言 英语
◎上映日期 2021-08-27(美国)
◎豆瓣评分 /10 from 0 users
◎ 
◎片  长 83分钟
◎主  演 汤姆·塞兹摩尔 Tom Sizemore

◎简  介

  当历史上最强大的水生捕食者回来时,被派去摧毁它的现代战舰舰队根本没有机会。
Video
ID             : 1
Format           : AVC
Format/Info          : Advanced Video Codec
Format profile         :
Format settings        : CABAC / 8 Ref Frames
Format settings, CABAC       : Yes
Format settings, Reference frames  : 8 frames
Codec ID           : V_MPEG4/ISO/AVC
Duration           : 1 h 23 min
Bit rate           : 5 021 kb/s
Width            : 1 280 pixels
Height           : 536 pixels
Display aspect ratio       : 2.40:1
Frame rate mode        : Constant
Frame rate           : 23.976 (24000/1001/189150) FPS
Color space          : YUV
Chroma subsampling       : 4:2:0
Bit depth          : 8 bits
Scan type          : Progressive
Bits/(Pixel*Frame)       : 0.305
Stream size          : 2.92 GiB (89%)
Writing library        : x264 core 164 r3075 66a5bc1
Encoding settings        : cabac=1 / ref=8 / deblock=1:-3:-3 / analyse=0x3:0x133 / me=umh / subme=9 / psy=1 / psy_rd=1.00:0.00 / mixed_ref=1 / me_range=16 / chroma_me=1 / trellis=2 / 8x8dct=1 / cqm=0 / deadzone=21,11 / fast_pskip=0 / chroma_qp_offset=-2 / threads=17 / lookahead_threads=1 / sliced_threads=0 / nr=0 / decimate=1 / interlaced=0 / bluray_compat=0 / constrained_intra=0 / bframes=3 / b_pyramid=2 / b_adapt=2 / b_bias=0 / direct=3 / weightb=1 / open_gop=0 / weightp=2 / keyint=250 / keyint_min=23 / scenecut=40 / intra_refresh=0 / rc_lookahead=60 / rc=crf / mbtree=1 / crf=17.0 / qcomp=0.60 / qpmin=0 / qpmax=69 / qpstep=4 / ip_ratio=1.40 / aq=3:1.00
Default            : Yes
Forced           : No
Color range          : Limited
Matrix coefficients        : BT.709

Audio
ID             : 2
Format           : AC-3
Format/Info          : Audio Coding 3
Commercial name        : Dolby Digital
Codec ID           : A_AC3
Duration           : 1 h 23 min
Bit rate mode          : Constant
Bit rate           : 640 kb/s
Channel(s)           : 6 channels
Channel layout         : L R C LFE Ls Rs
Sampling rate          : 48.0 kHz
Frame rate           : 31.250 FPS (1536 SPF)
Compression mode         : Lossy
Stream size          : 380 MiB (11%)
Language           : English
Service kind         : Complete Main
Default            : Yes
Forced           : No

Text #1
ID             : 3
Format           : UTF-8
Codec ID           : S_TEXT/UTF8
Codec ID/Info          : UTF-8 Plain Text
Duration           : 1 h 9 min
Bit rate           : 2 b/s
Count of elements        : 39
Stream size          : 1.27 KiB (0%)
Language           : English
Default            : Yes
Forced           : Yes

Text #2
ID             : 4
Format           : PGS
Muxing mode          : zlib
Codec ID           : S_HDMV/PGS
Codec ID/Info          : Picture based subtitle format used on BDs/HD-DVDs
Duration           : 1 h 9 min
Bit rate           : 1 233 b/s
Count of elements        : 78
Stream size          : 627 KiB (0%)
Language           : English
Default            : No
Forced           : No

Text #3
ID             : 5
Format           : PGS
Muxing mode          : zlib
Codec ID           : S_HDMV/PGS
Codec ID/Info          : Picture based subtitle format used on BDs/HD-DVDs
Duration           : 1 h 12 min
Bit rate           : 1 681 b/s
Count of elements        : 104
Stream size          : 892 KiB (0%)
Language           : German
Default            : No
Forced           : No

Menu
00:00:00.000         : en:00:00:00.000
00:09:45.418         : en:00:09:45.418
00:19:47.103         : en:00:19:47.103
00:29:59.297         : en:00:29:59.297
00:40:26.466         : en:00:40:26.466
00:49:32.511         : en:00:49:32.511
01:00:19.908         : en:01:00:19.908
01:09:25.787         : en:01:09:25.787
01:19:50.786         : en:01:19:50.786






                                                                  
                                                                                                                                                                                                                                                                                 
875c973d5393f161cfa06bded1b32449.torrent (17.14 KB, 下载次数: 0)

回复

使用道具 举报

小黑屋|百度云资源论坛

本网站所有资源来自网络,如无意中侵犯了您的权益,请发邮件至 [email protected],立即清除相关链接

GMT+8, 2024-7-21 00:00 , Processed in 0.081661 second(s), 26 queries .

Powered by Discuz! X3.2

© 2001-2013 Comsenz Inc.

快速回复 返回顶部 返回列表