百度云资源论坛

 找回密码
 立即注册
搜索

[熊出没·狂野大陆][BT下载]WEB-MP4/2.87G][国语中字][1080P]

[复制链接]
百度云资源 发表于 2021-3-22 18:01:52 | 显示全部楼层 |阅读模式
-->


◎译  名 熊出没大电影7/熊出没科幻大电影/Boonie Bears: The Wild Life
◎片  名 熊出没·狂野大陆
◎年  代 2020
◎产  地 中国大陆
◎类  别 喜剧/科幻/动画
◎语  言 汉语普通话
◎上映日期 2020-08-01(上海电影节)/2021-02-12(中国大陆)
◎片  长 99分钟
◎导  演 丁亮 Liang Ding / 邵和麒 Heqi Shao
◎编  剧 徐芸 Yun Xu / 崔铁志 Tiezhi Cui
◎主  演 张伟 Wei Zhang
       张秉君 Bingjun Zhang
       谭笑 Xiao Tan
       饶依格 Yige Rao
       朱光祖 Guangzu Zhu


◎标  签 熊出没 | 国产动画 | 永远支持熊出没 | 熊出没动画片粉丝 | 动画 | 每年必看 | 国产电影 | 电影


◎简  介


  
  狗熊岭附近新开业了一个神奇的“狂野大陆”,在那里,通过基因技术人可以自由变身各种动物,享受无比的自由和快乐。导游事业受挫的光头强,阴差阳错与神秘人乐天和熊二组队,参加乐园里奖金丰厚的比赛,却遭遇了队友乐天的背叛,历尽艰险终于获得冠军之际,却意外发现狂野大陆里隐藏着惊天的阴谋......
  


◎获奖情况


  第23届上海国际电影节  (2020)
  金爵奖最佳动画片(提名) 丁亮
  
  第33届中国电影金鸡奖  (2020)
  最佳美术片(提名)
General
Complete name                  : Z:\001\熊出没·狂野大陆.Boonie.Bears.The.Wild.Life.2020.WEB-DL.1080p.mp4
Format                         : MPEG-4
Format profile                 : Base Media
Codec ID                       : isom (isom/iso2/avc1/mp41)
File size                      : 2.88 GiB
Duration                       : 1 h 39 min
Overall bit rate mode          : Variable
Overall bit rate               : 4 135 kb/s


Video
ID                             : 1
Format                         : AVC
Format/Info                    : Advanced Video Codec
Format profile                 :
Format settings                : CABAC / 1 Ref Frames
Format settings, CABAC         : Yes
Format settings, Reference fra : 1 frame
Codec ID                       : avc1
Codec ID/Info                  : Advanced Video Coding
Duration                       : 1 h 39 min
Bit rate mode                  : Variable
Bit rate                       : 4 004 kb/s
Maximum bit rate               : 8 000 kb/s
Width                          : 1 920 pixels
Height                         : 1 080 pixels
Display aspect ratio           : 16:9
Frame rate mode                : Constant
Frame rate                     : 25.000 FPS
Standard                       : Component
Color space                    : YUV
Chroma subsampling             : 4:2:0
Bit depth                      : 8 bits
Scan type                      : Progressive
Bits/(Pixel*Frame)             : 0.077
Stream size                    : 2.78 GiB (97%)
Color range                    : Limited
Codec configuration box        : avcC


Audio
ID                             : 2
Format                         : AAC LC
Format/Info                    : Advanced Audio Codec Low Complexity
Codec ID                       : mp4a-40-2
Duration                       : 1 h 39 min
Bit rate mode                  : Constant
Bit rate                       : 125 kb/s
Channel(s)                     : 2 channels
Channel layout                 : L R
Sampling rate                  : 48.0 kHz
Frame rate                     : 46.875 FPS (1024 SPF)
Compression mode               : Lossy
Stream size                    : 89.3 MiB (3%)
Default                        : Yes
Alternate group                : 1










                                                                                                                                                                                                        
                                                                                                                                                                                                                                                                                                                                                                                                                                                                                                                                                                                                                                                                                                                                                                                                                                                        
d1b1f2632acaa07a71e3e998d6b998af.torrent (18.86 KB, 下载次数: 0)

回复

使用道具 举报

小黑屋|百度云资源论坛 |网站地图

本网站所有资源来自网络,如无意中侵犯了您的权益,请发邮件至 [email protected],立即清除相关链接

GMT+8, 2021-4-19 19:40 , Processed in 0.140454 second(s), 22 queries .

Powered by Discuz! X3.2

© 2001-2013 Comsenz Inc.

快速回复 返回顶部 返回列表