百度云资源论坛

 找回密码
 立即注册
搜索

要敌 Archenemy.2020.1080p.BluRay.x264.DTS-HD.MA.5.1-MT 12.68GB

[复制链接]
百度云电影 发表于 2021-2-19 08:04:33 | 显示全部楼层 |阅读模式
-->
帖子完整标题:要敌 Archenemy.2020.1080p.BluRay.x264.DTS-HD.MA.5.1-MT 12.68GB


[/url]

◎译  名 要敌
◎片  名 Archenemy
◎年  代 2020
◎产  地 美国
◎类  别 动作 / 冒险
◎上映日期 2020-12-11(美国)
◎IMDb评分  5/10 from 1296 users
◎  
◎豆瓣评分 /10 from 0 users
◎ 
◎导  演 亚当·埃及·摩提莫 Adam Egypt Mortimer
◎编  剧 亚当·埃及·摩提莫 Adam Egypt Mortimer
◎主  演 乔·曼根尼罗 Joe Manganiello
       格伦·豪尔顿 Glenn Howerton
       约瑟夫·D·雷特曼 Joseph D. Reitman
       麦克·勃兰特 Mac Brandt
       基兰·加拉赫 Kieran Gallagher
       克里斯托弗·盖顿 Christopher Guyton

◎标  签 动作 | 美国 | 电影 | 乔·曼根尼罗 | 2020 | 美国电影 | 剧情 | 冒险

◎简  介

  乔·曼根尼罗将主演动作冒险影片[要敌](Archenemy,暂译),Adam Egypt Mortimer([丹尼尔不是真的])自编自导。影片故事讲述麦克斯·费斯特(Max Fist)自称自己是来自另一个维度的超级英雄,他穿越时空跌落到了地球上,在地球上的他无法施展超能力。没人相信他的故事,只有一个叫“仓鼠”的少年相信他的话。他们一起走上街头,消灭当地的毒品集团及名为“经理”的犯罪头目。
Video
ID                                       : 1
Format                                   : AVC
Format/Info                              : Advanced Video Codec
Format profile                           :
Format settings                          : CABAC / 5 Ref Frames
Format settings, CABAC                   : Yes
Format settings, Reference frames        : 5 frames
Codec ID                                 : V_MPEG4/ISO/AVC
Duration                                 : 1 h 30 min
Bit rate                                 : 16.3 Mb/s
Width                                    : 1 920 pixels
Height                                   : 808 pixels
Display aspect ratio                     : 2.40:1
Frame rate mode                          : Constant
Frame rate                               : 23.976 (24000/1001/189150) FPS
Color space                              : YUV
Chroma subsampling                       : 4:2:0
Bit depth                                : 8 bits
Scan type                                : Progressive
Bits/(Pixel*Frame)                       : 0.439
Stream size                              : 10.3 GiB (81%)
Writing library                          : x264 core 157 r2938 2b00a84  Mod
Encoding settings                        : cabac=1 / ref=5 / deblock=1:-3:-3 / analyse=0x3:0x133 / me=umh / subme=10 / psy=1 / psy_rd=1.05:0.00 / mixed_ref=1 / me_range=32 / chroma_me=1 / trellis=2 / 8x8dct=1 / cqm=0 / deadzone=21,11 / fast_pskip=0 / chroma_qp_offset=-2 / threads=12 / lookahead_threads=2 / sliced_threads=0 / nr=0 / decimate=0 / interlaced=0 / bluray_compat=0 / constrained_intra=0 / bframes=8 / b_pyramid=2 / b_adapt=2 / b_bias=0 / direct=3 / weightb=1 / open_gop=0 / weightp=2 / keyint=250 / keyint_min=24 / scenecut=40 / intra_refresh=0 / rc_lookahead=250 / rc=crf / mbtree=0 / crf=16.8 / qcomp=0.60 / qpmin=0 / qpmax=69 / qpstep=4 / vbv_maxrate=62500 / vbv_bufsize=78125 / crf_max=0.0 / nal_hrd=none / filler=0 / ip_ratio=1.30 / pb_ratio=1.20 / aq=3:0.80
Language                                 : English
Default                                  : Yes
Forced                                   : No
Color range                              : Limited
Color primaries                          : BT.709
Matrix coefficients                      : BT.709

Audio
ID                                       : 2
Format                                   : DTS XLL
Format/Info                              : Digital Theater Systems
Commercial name                          : DTS-HD Master Audio
Codec ID                                 : A_DTS
Duration                                 : 1 h 30 min
Bit rate mode                            : Variable
Bit rate                                 : 3 787 kb/s
Channel(s)                               : 6 channels
Channel layout                           : C L R Ls Rs LFE
Sampling rate                            : 48.0 kHz
Frame rate                               : 93.750 FPS (512 SPF)
Bit depth                                : 24 bits
Compression mode                         : Lossless
Stream size                              : 2.39 GiB (19%)
Language                                 : English
Default                                  : Yes
Forced                                   : No

Text #1
ID                                       : 3
Format                                   : UTF-8
Codec ID                                 : S_TEXT/UTF8
Codec ID/Info                            : UTF-8 Plain Text
Duration                                 : 1 h 22 min
Bit rate                                 : 50 b/s
Count of elements                        : 1014
Stream size                              : 30.4 KiB (0%)
Title                                    : SRT
Language                                 : English
Default                                  : Yes
Forced                                   : No

Text #2
ID                                       : 4
Format                                   : PGS
Muxing mode                              : zlib
Codec ID                                 : S_HDMV/PGS
Codec ID/Info                            : Picture based subtitle format used on BDs/HD-DVDs
Duration                                 : 1 h 22 min
Bit rate                                 : 23.2 kb/s
Count of elements                        : 2276
Stream size                              : 13.7 MiB (0%)
Language                                 : English
Default                                  : No
Forced                                   : No

Menu
00:00:00.000                             : en:Chapter 01
00:05:50.100                             : en:Chapter 02
00:18:24.145                             : en:Chapter 03
00:33:48.401                             : en:Chapter 04
00:50:08.923                             : en:Chapter 05
01:04:28.990                             : en:Chapter 06
01:10:16.963                             : en:Chapter 07
01:23:27.669                             : en:Chapter 08
[/url][/url][/url]



                                                                                                                                                                                                        
                                                                                                                                                                                                                                                                                                                                                                                                                                                                                                                                                                                                                                                                                                                                                                                                                                                        
2476a24b71ab872fcb2f799a54099939.zip (64.06 KB, 下载次数: 0)

回复

使用道具 举报

小黑屋|百度云资源论坛 |网站地图

本网站所有资源来自网络,如无意中侵犯了您的权益,请发邮件至 [email protected],立即清除相关链接

GMT+8, 2021-3-1 21:56 , Processed in 0.103591 second(s), 26 queries .

Powered by Discuz! X3.2

© 2001-2013 Comsenz Inc.

快速回复 返回顶部 返回列表