百度云资源论坛

 找回密码
 立即注册
搜索

哆啦A梦:大雄的新恐龙.Doraemon Nobita's New Dinosaur [BD 1920x1080 ...

[复制链接]
百度云资源 发表于 2021-2-19 08:04:33 | 显示全部楼层 |阅读模式
-->
◎译  名 哆啦A梦:大雄的新恐龙/电影多啦A梦:大雄之新恐龙(港)/电影哆啦A梦:大雄的新恐龙(台)
◎片  名 映画ドラえもん のび太の新恐竜
◎年  代 2020
◎产  地 日本
◎类  别 动画/奇幻/冒险
◎语  言 日语
◎上映日期 2020-08-07(日本)/2020-12-11(中国大陆)
◎  
◎豆瓣评分 7.4/10 from 17649 users
◎ https://douban.com/subject/34454004/
◎片  长 110分钟
◎导  演 今井一晓 Kazuaki Imai
◎编  剧 川村元气 Genki Kawamura / 藤子·F·不二雄 F. Fujio Fujiko
◎主  演 水田山葵 Wasabi Mizuta
       大原惠美 Megumi Oohara
       嘉数由美 Yumi Kakazu
       关智一 Tomokazu Seki
       木村昴 Subaru Kimura
       远藤绫 Aya Endô
       钉宫理惠 Rie Kugimiya
       渡边直美 Naomi Watanabe
       木村拓哉 Takuya Kimura
       三石琴乃 Kotono Mitsuishi
       间宫康弘 Yasuhiro Mamiya
       下和田裕贵 Shimowada Hiroki
       陈美贞 Chen Meizhen


◎标  签 哆啦A梦 | 哆啦A梦剧场版 | 情怀 | 日本 | 动画 | 2020 | 日本动画 | 动漫


◎简  介


  
  大雄把恐龙展发现的化石带回家,借助哆啦A梦的时光包袱竟然成功孵化出两只从未被发现过的长着翅膀的新恐龙。大雄和小伙伴们决定将小恐龙们带回到属于它们的时代,一场惊心动魄的白垩纪大冒险即将上演。
  
  本片是《哆啦A梦》漫画连载50周年纪念作品,同时也是《哆啦A梦》系列电影的第40 部作品。全新的故事,全新的大雄,全新的冒险,全新出发!
General
Unique ID                      : 136227703862902313779997590976918415210 (0x667C805C9147FD8635A8FE4F0747676A)
Complete name                  : Z:\001\[SAIO-Raws] Doraemon Nobita's New Dinosaur [BD 1920x1080 x264 FLACx2 DTS-HDMA 7.1][2020].mkv
Format                         : Matroska
Format version                 : Version 4
File size                      : 11.8 GiB
Duration                       : 1 h 50 min
Overall bit rate mode          : Variable
Overall bit rate               : 15.3 Mb/s
Encoded date                   : UTC 2021-01-11 15:28:52
Writing application            : mkvmerge v48.0.0 ('Fortress Around Your Heart') 64-bit
Writing library                : libebml v1.4.0 + libmatroska v1.6.0


Video
ID                             : 1
Format                         : AVC
Format/Info                    : Advanced Video Codec
Format profile                 :
Format settings                : CABAC / 4 Ref Frames
Format settings, CABAC         : Yes
Format settings, Reference fra : 4 frames
Codec ID                       : V_MPEG4/ISO/AVC
Duration                       : 1 h 50 min
Bit rate                       : 7 146 kb/s
Width                          : 1 920 pixels
Height                         : 1 080 pixels
Display aspect ratio           : 16:9
Frame rate mode                : Constant
Frame rate                     : 23.976 (24000/1001) FPS
Color space                    : YUV
Chroma subsampling             : 4:2:0
Bit depth                      : 8 bits
Scan type                      : Progressive
Bits/(Pixel*Frame)             : 0.144
Stream size                    : 5.53 GiB (47%)
Writing library                : x264 core 157 r2935 545de2f
Encoding settings              : cabac=1 / ref=3 / deblock=1:0:0 / analyse=0x3:0x113 / me=hex / subme=7 / psy=1 / psy_rd=1.00:0.00 / mixed_ref=1 / me_range=16 / chroma_me=1 / trellis=1 / 8x8dct=1 / cqm=0 / deadzone=21,11 / fast_pskip=1 / chroma_qp_offset=-2 / threads=12 / lookahead_threads=2 / sliced_threads=0 / nr=0 / decimate=1 / interlaced=0 / bluray_compat=0 / constrained_intra=0 / bframes=3 / b_pyramid=2 / b_adapt=1 / b_bias=0 / direct=1 / weightb=1 / open_gop=0 / weightp=2 / keyint=240 / keyint_min=24 / scenecut=40 / intra_refresh=0 / rc_lookahead=40 / rc=crf / mbtree=1 / crf=15.0 / qcomp=0.60 / qpmin=0 / qpmax=69 / qpstep=4 / ip_ratio=1.40 / aq=1:1.00
Default                        : Yes
Forced                         : No
Color range                    : Limited
Color primaries                : BT.709
Transfer characteristics       : BT.709
Matrix coefficients            : BT.709


Audio #1
ID                             : 2
Format                         : FLAC
Format/Info                    : Free Lossless Audio Codec
Codec ID                       : A_FLAC
Duration                       : 1 h 50 min
Bit rate mode                  : Variable
Bit rate                       : 1 439 kb/s
Channel(s)                     : 2 channels
Channel layout                 : L R
Sampling rate                  : 48.0 kHz
Frame rate                     : 10.417 FPS (4608 SPF)
Bit depth                      : 24 bits
Compression mode               : Lossless
Delay relative to video        : 50 ms
Stream size                    : 1.11 GiB (9%)
Language                       : Japanese
Default                        : Yes
Forced                         : No


Audio #2
ID                             : 3
Format                         : DTS XLL
Format/Info                    : Digital Theater Systems
Commercial name                : DTS-HD Master Audio
Codec ID                       : A_DTS
Duration                       : 1 h 50 min
Bit rate mode                  : Variable
Bit rate                       : 5 259 kb/s
Channel(s)                     : 8 channels
Channel layout                 : C L R LFE Lb Rb Lss Rss
Sampling rate                  : 48.0 kHz
Frame rate                     : 93.750 FPS (512 SPF)
Bit depth                      : 24 bits
Compression mode               : Lossless
Delay relative to video        : 53 ms
Stream size                    : 4.07 GiB (34%)
Language                       : Japanese
Default                        : No
Forced                         : No


Audio #3
ID                             : 4
Format                         : FLAC
Format/Info                    : Free Lossless Audio Codec
Codec ID                       : A_FLAC
Duration                       : 1 h 50 min
Bit rate mode                  : Variable
Bit rate                       : 1 452 kb/s
Channel(s)                     : 2 channels
Channel layout                 : L R
Sampling rate                  : 48.0 kHz
Frame rate                     : 10.417 FPS (4608 SPF)
Bit depth                      : 24 bits
Compression mode               : Lossless
Delay relative to video        : 45 ms
Stream size                    : 1.12 GiB (9%)
Language                       : Japanese
Default                        : No
Forced                         : No

07d5d2f5dd8b481c494c61f39f9135c7.torrent (120.69 KB, 下载次数: 0)

回复

使用道具 举报

小黑屋|百度云资源论坛 |网站地图

本网站所有资源来自网络,如无意中侵犯了您的权益,请发邮件至 [email protected],立即清除相关链接

GMT+8, 2021-3-1 05:07 , Processed in 0.112613 second(s), 23 queries .

Powered by Discuz! X3.2

© 2001-2013 Comsenz Inc.

快速回复 返回顶部 返回列表