百度云资源论坛

 找回密码
 立即注册
搜索

严惩 Snuff.1976.720p.BluRay.x264-YAMG 4.38GB

[复制链接]
百度云电影 发表于 2021-2-12 15:06:00 | 显示全部楼层 |阅读模式
-->
帖子完整标题:严惩 Snuff.1976.720p.BluRay.x264-YAMG 4.38GB


[/url]

◎译  名 严惩/Big Snuff/El ángel de la muerte/Snuff AKA American Cannibale
◎片  名 Snuff
◎年  代 1976
◎产  地 阿根廷,美国,加拿大
◎类  别 惊悚 / 恐怖
◎语  言 英语
◎上映日期 1976-01-16
◎IMDb评分  2.8/10 from 1541 users
◎  
◎豆瓣评分 /10 from 0 users
◎ 
◎片  长 80 分钟
◎导  演  迈克尔·芬德雷 Michael Findlay
◎编  剧  迈克尔·芬德雷 Michael Findlay

◎标  签 血腥 | 恐怖 | 暴力\血腥\变态 | 渴望得到这片子的bt种子 | Michael_Findlay | 惊悚 | W-Cult | 超级无聊

◎简  介

  暂无相关剧情介绍
Video
ID                                       : 1
Format                                   : AVC
Format/Info                              : Advanced Video Codec
Format profile                           :
Format settings                          : CABAC / 9 Ref Frames
Format settings, CABAC                   : Yes
Format settings, Reference frames        : 9 frames
Codec ID                                 : V_MPEG4/ISO/AVC
Duration                                 : 1 h 20 min
Bit rate                                 : 7 556 kb/s
Width                                    : 1 200 pixels
Height                                   : 720 pixels
Display aspect ratio                     : 5:3
Frame rate mode                          : Constant
Frame rate                               : 23.976 (24000/1001/189150) FPS
Color space                              : YUV
Chroma subsampling                       : 4:2:0
Bit depth                                : 8 bits
Scan type                                : Progressive
Bits/(Pixel*Frame)                       : 0.365
Stream size                              : 4.22 GiB (96%)
Writing library                          : x264 core 161 r3043 59c0609
Encoding settings                        : cabac=1 / ref=9 / deblock=1:-3:-3 / analyse=0x3:0x133 / me=umh / subme=10 / psy=1 / psy_rd=1.00:0.00 / mixed_ref=1 / me_range=32 / chroma_me=1 / trellis=2 / 8x8dct=1 / cqm=0 / deadzone=21,11 / fast_pskip=0 / chroma_qp_offset=-2 / threads=22 / lookahead_threads=3 / sliced_threads=0 / nr=0 / decimate=0 / interlaced=0 / bluray_compat=0 / constrained_intra=0 / bframes=8 / b_pyramid=2 / b_adapt=2 / b_bias=0 / direct=3 / weightb=1 / open_gop=0 / weightp=2 / keyint=250 / keyint_min=23 / scenecut=40 / intra_refresh=0 / rc=crf / mbtree=0 / crf=18.0 / qcomp=0.60 / qpmin=0 / qpmax=69 / qpstep=4 / ip_ratio=1.40 / pb_ratio=1.30 / aq=3:0.60
Language                                 : English
Default                                  : Yes
Forced                                   : No
Color range                              : Limited
Matrix coefficients                      : BT.709

Audio
ID                                       : 2
Format                                   : FLAC
Format/Info                              : Free Lossless Audio Codec
Codec ID                                 : A_FLAC
Duration                                 : 1 h 20 min
Bit rate mode                            : Variable
Bit rate                                 : 275 kb/s
Channel(s)                               : 1 channel
Channel layout                           : C
Sampling rate                            : 48.0 kHz
Frame rate                               : 11.719 FPS (4096 SPF)
Bit depth                                : 16 bits
Compression mode                         : Lossless
Stream size                              : 157 MiB (4%)
Writing library                          : libFLAC 1.3.3 (UTC 2019-08-04)
Language                                 : English
Default                                  : Yes
Forced                                   : No

Text #1
ID                                       : 3
Format                                   : UTF-8
Codec ID                                 : S_TEXT/UTF8
Codec ID/Info                            : UTF-8 Plain Text
Duration                                 : 1 h 17 min
Bit rate                                 : 40 b/s
Count of elements                        : 652
Stream size                              : 22.9 KiB (0%)
Title                                    : English
Language                                 : English
Default                                  : No
Forced                                   : No

Text #2
ID                                       : 4
Format                                   : UTF-8
Codec ID                                 : S_TEXT/UTF8
Codec ID/Info                            : UTF-8 Plain Text
Duration                                 : 1 h 19 min
Bit rate                                 : 42 b/s
Count of elements                        : 741
Stream size                              : 24.9 KiB (0%)
Title                                    : English SDH
Language                                 : English
Default                                  : No
Forced                                   : No

Text #3
ID                                       : 5
Format                                   : PGS
Muxing mode                              : zlib
Codec ID                                 : S_HDMV/PGS
Codec ID/Info                            : Picture based subtitle format used on BDs/HD-DVDs
Duration                                 : 1 h 19 min
Bit rate                                 : 25.4 kb/s
Count of elements                        : 1483
Stream size                              : 14.5 MiB (0%)
Title                                    : English SDH PGS
Language                                 : English
Default                                  : No
Forced                                   : No

Menu
00:00:00.000                             : en:Chapter 01
00:05:04.888                             : en:Chapter 02
00:08:33.722                             : en:Chapter 03
00:14:42.965                             : en:Chapter 04
00:19:56.696                             : en:Chapter 05
00:24:07.529                             : en:Chapter 06
00:28:59.321                             : en:Chapter 07
00:34:12.759                             : en:Chapter 08
00:41:05.046                             : en:Chapter 09
00:47:16.834                             : en:Chapter 10
00:52:42.409                             : en:Chapter 11
00:57:34.868                             : en:Chapter 12
01:03:30.557                             : en:Chapter 13
01:08:33.026                             : en:Chapter 14
01:14:26.671                             : en:Chapter 15
[/url]



                                                                                                                                                                                                        
                                                                                                                                                                                                                                                                                                                                                                                                                                                                                                                                                                                                                                                                                                                                                                                                                                                        
4d83873886a524bcd5068d8638e21f2e.zip (44.47 KB, 下载次数: 0)

回复

使用道具 举报

小黑屋|百度云资源论坛 |网站地图

本网站所有资源来自网络,如无意中侵犯了您的权益,请发邮件至 [email protected],立即清除相关链接

GMT+8, 2021-2-25 07:51 , Processed in 0.102238 second(s), 23 queries .

Powered by Discuz! X3.2

© 2001-2013 Comsenz Inc.

快速回复 返回顶部 返回列表