百度云资源论坛

 找回密码
 立即注册
搜索

抓住救命稻草的野兽们 Beasts.That.Cling.to.the.Straw.2020.KOREAN.108...

[复制链接]
百度云电影 发表于 2021-1-4 12:06:01 | 显示全部楼层 |阅读模式
-->
帖子完整标题:抓住救命稻草的野兽们 Beasts.That.Cling.to.the.Straw.2020.KOREAN.1080p.BluRay.x264.DD5.1-WMD 8.04GB




◎译  名 抓住救命稻草的野兽们/Beasts Clawing at Straws/Beasts That Cling to the Straw/垂死挣扎的野兽们/抓住稻草的野兽/笼子里的野兽(港)
◎片  名 ?????? ?? ?? ???
◎年  代 2020
◎产  地 韩国
◎类  别 惊悚 / 犯罪
◎语  言 韩语
◎上映日期 2020-02-21(韩国)
◎IMDb评分  7.1/10 from 1945 users
◎  
◎豆瓣评分 6.9/10 from 14681 users
◎ 
◎片  长 108分钟
◎导  演 金容勋 Yong-hoon Kim
◎编  剧 金容勋 Yong-hoon Kim / 曾根圭介  
◎主  演 全度妍 Do-yeon Jeon
       郑雨盛 Woo-sung Jung
       裴晟祐 Sung-Woo Bae
       尹汝贞 Yeo-jeong Yoon
       郑满植 Man-shik Jeong
       陈庆 Jin Gyeong
       申贤彬 Hyun-bin Shin
       郑家蓝 Ga-ram  Jung
       金俊翰 Joon-han Kim
       朴智焕 Park Ji-hwan
       许栋元 Heo Dong-won
       裴振雄 Jin-woong Bae
       林皓俊 Im Ho-joon

◎标  签 犯罪 | 韩国 | 悬疑 | 韩国电影 | 全度妍 | 剧情 | 2020 | 郑雨盛

◎简  介

  因失踪的恋人而负债累累的泰荣(郑雨盛饰)、辛苦打工却只能勉强维持生计的一家之长忠万(裴成宇饰)、想要洗白过去而觊觎他人所有的妍希(全度妍饰),以及高利贷放贷者朴社长(郑满植饰)、因欠债而家庭破碎的美兰(申贤彬饰)、非法滞留者镇泰(郑家蓝饰)、一心为家人而活的英善(陈庆饰)、失忆的顺子(尹汝贞饰),所有身处困境的这些人,都将一个钱袋视为自己人生的最后机会,从而引发了一连串始料未及的事件。

◎获奖情况

  第41届韩国电影青龙奖 ?(2020)
  最佳女主角(提名) 全度妍
  最佳新人男演员(提名) 李学周
  最佳新人女演员(提名) 申贤彬
  最佳剪辑(提名)
  
  第49届鹿特丹国际电影节 ?(2020)
  老虎奖特别荣誉 金容勋
  老虎奖(提名) 金容勋
Video
ID                                       : 1
Format                                   : AVC
Format/Info                              : Advanced Video Codec
Format profile                           :
Format settings                          : CABAC / 5 Ref Frames
Format settings, CABAC                   : Yes
Format settings, Reference frames        : 5 frames
Codec ID                                 : V_MPEG4/ISO/AVC
Duration                                 : 1 h 48 min
Bit rate                                 : 9 934 kb/s
Width                                    : 1 920 pixels
Height                                   : 804 pixels
Display aspect ratio                     : 2.40:1
Frame rate mode                          : Constant
Frame rate                               : 24.000 FPS
Color space                              : YUV
Chroma subsampling                       : 4:2:0
Bit depth                                : 8 bits
Scan type                                : Progressive
Bits/(Pixel*Frame)                       : 0.268
Stream size                              : 7.55 GiB (94%)
Title                                    : Beasts.That.Cling.to.the.Straw.2020.1080p.BluRay.DD.EX.5.1.x264-WMD
Writing library                          : x264 core 160 r3009 4c9b076
Encoding settings                        : cabac=1 / ref=5 / deblock=1:-3:-3 / analyse=0x3:0x113 / me=umh / subme=10 / psy=1 / psy_rd=1.00:0.00 / mixed_ref=1 / me_range=32 / chroma_me=1 / trellis=2 / 8x8dct=1 / cqm=0 / deadzone=21,11 / fast_pskip=0 / chroma_qp_offset=-2 / threads=6 / lookahead_threads=1 / sliced_threads=0 / nr=0 / decimate=0 / interlaced=0 / bluray_compat=0 / constrained_intra=0 / bframes=16 / b_pyramid=2 / b_adapt=1 / b_bias=0 / direct=1 / weightb=1 / open_gop=0 / weightp=2 / keyint=250 / keyint_min=24 / scenecut=40 / intra_refresh=0 / rc=crf / mbtree=0 / crf=17.3 / qcomp=0.68 / qpmin=0 / qpmax=69 / qpstep=4 / ip_ratio=1.40 / pb_ratio=1.30 / aq=2:0.90
Language                                 : Korean
Default                                  : Yes
Forced                                   : No

Audio
ID                                       : 2
Format                                   : AC-3
Format/Info                              : Audio Coding 3
Commercial name                          : Dolby Digital
Codec ID                                 : A_AC3
Duration                                 : 1 h 48 min
Bit rate mode                            : Constant
Bit rate                                 : 640 kb/s
Channel(s)                               : 6 channels
Channel layout                           : L R C LFE Ls Rs
Sampling rate                            : 48.0 kHz
Frame rate                               : 31.250 FPS (1536 SPF)
Compression mode                         : Lossy
Stream size                              : 498 MiB (6%)
Title                                    : DD-EX 5.1 @ 640kbps
Language                                 : Korean
Service kind                             : Complete Main
Default                                  : Yes
Forced                                   : No

Text #1
ID                                       : 3
Format                                   : UTF-8
Codec ID                                 : S_TEXT/UTF8
Codec ID/Info                            : UTF-8 Plain Text
Duration                                 : 1 h 41 min
Bit rate                                 : 40 b/s
Count of elements                        : 1232
Stream size                              : 30.2 KiB (0%)
Title                                    : English
Language                                 : English
Default                                  : Yes
Forced                                   : Yes

Text #2
ID                                       : 4
Format                                   : PGS
Muxing mode                              : zlib
Codec ID                                 : S_HDMV/PGS
Codec ID/Info                            : Picture based subtitle format used on BDs/HD-DVDs
Duration                                 : 1 h 41 min
Bit rate                                 : 27.1 kb/s
Count of elements                        : 2254
Stream size                              : 19.7 MiB (0%)
Title                                    : Traditional Chinese
Language                                 : Chinese
Default                                  : No
Forced                                   : No

Text #3
ID                                       : 5
Format                                   : UTF-8
Codec ID                                 : S_TEXT/UTF8
Codec ID/Info                            : UTF-8 Plain Text
Duration                                 : 1 h 41 min
Bit rate                                 : 51 b/s
Count of elements                        : 1232
Stream size                              : 38.3 KiB (0%)
Title                                    : Vietnamese
Language                                 : Vietnamese
Default                                  : No
Forced                                   : No

Menu
00:00:00.000                             : en:Chapter 01
00:06:26.208                             : en:Chapter 02
00:10:31.042                             : en:Chapter 03
00:15:19.750                             : en:Chapter 04
00:20:16.208                             : en:Chapter 05
00:23:49.042                             : en:Chapter 06
00:27:51.625                             : en:Chapter 07
00:31:01.917                             : en:Chapter 08
00:39:34.708                             : en:Chapter 09
00:43:58.083                             : en:Chapter 10
00:49:03.042                             : en:Chapter 11
00:56:49.250                             : en:Chapter 12
01:02:44.625                             : en:Chapter 13
01:06:27.583                             : en:Chapter 14
01:16:26.375                             : en:Chapter 15
01:22:36.208                             : en:Chapter 16
01:26:40.458                             : en:Chapter 17
01:31:54.458                             : en:Chapter 18
01:37:55.083                             : en:Chapter 19
01:41:29.833                             : en:Chapter 20




                                                                                                                                                                                                        
                                                                                                                                                                                                                                                                                                                                                                                                                                                                                                                                                                                                                                                                                                                                                                                                                                                        
e31008ce5f0e02ff9cf4576b56d2675b.zip (40.96 KB, 下载次数: 0)

回复

使用道具 举报

小黑屋|百度云资源论坛 |网站地图

本网站所有资源来自网络,如无意中侵犯了您的权益,请发邮件至 [email protected],立即清除相关链接

GMT+8, 2021-1-23 10:36 , Processed in 0.102890 second(s), 23 queries .

Powered by Discuz! X3.2

© 2001-2013 Comsenz Inc.

快速回复 返回顶部 返回列表